&title=ここにある空
&artist=米倉千尋
&first=1.616
&des=xxhb
&lv_1=1
&lv_2=3
&lv_3=7
&lv_4=8
&lv_5=10+
&inote_1=(150)
{1}
,,,,
1,2,7,{2}8,8b,
5<2[4:6],,,,
4h[4:7],,,,
4>7[4:6],,,,
5h[8:8],,,,
{2}
4,82,
5,17,
8,35,
1,64,
{1}
5s1[4:6],,
4>5[4:6],,
{8}
8,,,,,1b,,1b,{1},
{2}
3>7[4:6],,,,
5pp1[4:6],,,,
2,3,4,
5,6h[1:1],,1b,,
5<2[4:6],,,,
4h[4:7],,,,
4>7[4:6],,,,
5h[8:8],,,,
5<2[4:6],,,,
4h[4:7],,,,
4>7[4:6],,,,
5h[4:2],,
{2}
1,2,3bq6[4:6],,,,
7,8,1,2,
3h[4:1],4h[4:1],5h[4:1],6h[4:1],
{8}
,,1b,,,1b,,8,,7,,6,,5,,{1},,,
&inote_2=(150)
{1}
,,,,
{2}
1,2,7,8,4,3,6,5b,
{2}
1,18,
4,45,
1>6[4:6],,,,
1,18,
4,45,
8p3[4:2],,
{8},
1b,,,6b,,,,
{2}
1,34,5,86,
8z4[4:5],,,
1,
3h[2:1],,
1h[2:1],,
7>3[4:5],,,,
1s5[2:1],,,,
8,7,6,5,
8,65,4,13,
6h[2:1],,3h[2:1],,2-6[2:1],,8b,,
1,18,
4,45,
4-8[2:1],,
7,6,
5-1[2:1],,
2,,
34,,
56,,
1,18,
4,45,
4-8[2:1],,
7,6,
5-1[2:1],,
2,,
34,,
56,,
7b/8b<1[4:5],,,,
1,3,5,7,
{2}
8b,7,6,5,
{4}
,
{8}1b,,,1b,,1,,2,,3,,4,4b,,{1},,,
&inote_3=(150)
{1}
2bqq5[4:14],,,,
{8}
1h[4:1],,,,2h[4:1],,,,
3h[4:1],,,,4h[4:1],,,,
8h[4:1],,,,7h[4:1],,,,
6h[4:1],,,,5,5b,,,
1>4[8:1],,,,6,5,7h[8:3],5,,5,5-1[8:1],,,,7,,
{1}8<1[4:6],,
{8}
5<8[8:1],,,,3,4,2h[8:3],4,,4,4-8[8:1],,,,2,,
{1}1pp4[2:1]/5pp8[2:1],
{8}
,2b,2b,,6b,6b,,,
1,,34,,6,5,6,,
8,,56,,4,3,2h[4:1],,
8h[8:3],,,4h[8:3],,,
5pp1[2:1],,,,,,4,,3,,
2>5[8:1],,,,8>3[8:1],,,,6<1[8:1],,,,
4<7[8:1],,,,{1}2h[1:1],
{8}
8h[4:3],,,1h[8:3],,,,,
1,8,1,8,,1-5[8:1],,8b,,,,,,,,,
6h[4:1],,5,,3h[4:1],,4,,7h[4:1],,5,,2h[4:1],,4,,
8b-4[8:1],,,,3,,12,,
1-5[8:1],,,,6,,78,,
{1}6qq3[4:5],
{8}
,,,,
2,,1,,{1}8<1[2:1],
{8}
8b,,,,,,,,
2-6[8:1],,8,,17,,53,,
7-3[8:1],,1,,82,,46,,
1>4[8:1]*<6[8:1],,,,6,5,6,5-1[8:1],,,,,,,,,
12,,34,,56,,78,,1h[1:1],,8,7,6,,,,
6-2[8:1],,,1,,1,,1w5[2:1],{1},
{8}
7-3[8:1],,1,,82,,46,,
2-6[8:1],,8,,17,,53,,
8<5[8:1]*>3[8:1],,,,3,4,3,4-8[8:1],,,,,,,,,
45,,63,,72,,18,,
{1}7qq1[4:6]/2pp8[4:6],,
{8}
18,,72,,63,,45,,{1}4bqq1[4:6]/5bpp8[4:6],,
{4}
1,2,3,4,5,6,7,8,
2h[4:1],1b,7h[4:1],8b,3h[4:1],1b,6h[4:1],8b,
{8}
,45,45,,18,18,,
{4}
8,7,6,{8}5,5b,,,,{1}1b,,,,,,,
&inote_4=(150)
{1}
2bqq5[4:14],4b,6b,8b,
{8}
7h[4:1],,3,3h[8:3],,6,6h[4:1],,
1h[4:1],,5,5h[8:3],,2,2h[8:2],,
8h[4:1],,4,4h[8:3],,7,7h[8:2],,
1,3,5,7,8b/4,6/2b,,,
{8}
1h[8:7],,8,,4,4,5,5h[4:1],,6,6,7,7h[4:1],,8h[4:1],,
{1}
1>8[4:6],,
{8}
8h[8:7],,1,,5,5,4,4h[4:1],,3,3,2,2h[4:1],,1h[4:1],,
8z4[2:1]*-4[2:1],,,,,,,,
,1b/5,3/7b,,
8/4b,6b/2,,,
3h[4:1]/4,,2,8h[4:1]/1,,2,3,5h[4:1]/4,,4-8[8:1],4,,7,,,
81,81,,72,72,,36,3h[2:1]/6h[2:1],,,,,,4/5h[4:3],,2,,1h[2:1],,,,8h[2:1],,6,,5h[2:1],,,,6h[8:3],,5,5s1[8:5],
{1},
8<2[2:1],
{8}
1b,2b,3b,4h[4:1],,
5h[4:1],,6qq3[2:1],,,,,,
2-5[8:1],,8,,7-4[8:1],,1,,
3-8[8:1],,4,,6-1[8:1],,5,,,
4b,,8<4[4:1]/1,,,,
2,2,1,1h[4:1],,5-1[8:1],,,,,
4h[4:5],,{1}5h[1:1],
{8}
,,,,
1,,
8pp3[4:3]*qq5[4:3],,{1}8b,
1bs5[2:1],
{8}
2-6[4:1],,8,8h[4:1],,,,
6>1[2:1],{1},
{8}
1/8-4[8:1],,,,
5,5,3,3h[4:1],,1qq6[2:1],,,,,,,
3>8[8:1],,4,,5<8[8:1],,4,,
5h[8:8],,8,7,6h[8:3],,,,
6b,,,1/3b,,8b/5,,7/4h[4:1],,5,6,7h[4:1],,,
7b,,
7-3[4:1],,1,1h[4:1],,,,
3<8[2:1],{1},
{8}
8/1-5[8:1],,,,
4,4,6,6h[4:1],,8pp3[2:1],,,,,,,
6<1[8:1],,5,,4>1[8:1],,5,,
5h[2:1]/3,,,,2z6[2:1],,8,8,{1},
{8}
1,2,5,6,3,4,7,8,{1}
4bw8[4:6],,
{8}
4,3,2,
5,6,7,8h[8:3],1,,1,17,17,
2,3,4,5,6h[2:1],,4,4,4h[4:1],,1,1,7h[4:1]/2h[4:1],,,72,
1h[4:1]/5h[4:1],,,15,2,3b/7b,3b/7b,,2b/6b,2b/6b,,
8,7,6,5,4,3,2,1h[2:1],,,,5b,,{1},,,
&inote_5=(150)
{1}
2bqq5[4:14],4b,6b,8b,
{8}
7h[4:1],,3h[8:3],4,,6h[8:3],5,,
1h[4:1],,5h[8:3],4,,2h[8:3],3,,
8h[4:1],,4h[8:3],5,,7h[8:3],6,,
1,3,5,7,8b/4,6/2b,,,
4<7[8:1],,3,,
8h[8:3],3,2,1>4[8:1],,1,5,6,7>2[4:1],,2>1[4:3],,4h[8:3],,,,4<7[8:3]*<2[4:3],,,,,,,,,,,,
5>2[8:1],,6,,
1h[8:3],6,7,8<5[8:1],,2,3,4>7[8:3],,,7pp2[4:3],,{1}3pp6[4:2],
{8}
,1b/5,3/7b,,
8/4b,6b/2,,,
{8}
3h[4:1]/4,,1<6[8:1],1,,
4>1[8:1],4,5h[4:1],,2,1>4[8:1],5,1/4-8[8:1],5,46,
7>2[8:1],7,,4<7[8:1],4,,1>4[8:1],1,8h[4:1],,
7,8,1,2-5[8:1],1,2/8>4[4:1],,8/6h[2:1],,,,5-1[8:1],7,5/6<3[2:1],,63,,,,4h[4:1],,5,5,6b/4>5[4:2],,5,4,3,2,1,1,8h[8:2],,,
7h[4:1]/1h[4:1],,,2/6h[4:1],,2>5[8:1],6<1[8:1],2,6,,
5bp7[2:1],,1bp3[4:1],,,,,,
3-8[8:1],5,6-1[8:1],,4-8[8:1],3,4/2h[4:1],,1-5[8:1],7,1/6h[4:1],,7-4[8:1],8,1h[4:1]/7,,4,
{16}
1,8,7,6,
5b<8[8:1]/4,,,,3,,,,5>2[8:1],,8,,75,,6h[4:1],,,,4,,53,,2h[8:3],,,,,,1,,,,
8p4[8:1]/4p8[8:1],,,,,,,,4<7[8:1]/8>3[8:1],,,,,,,,1p4[8:1]/5p8[8:1],,,,,,,,
84,,15,,26,,37,,8,,2,,4,,6,,1,,3,,5,,7,,1b/5,,2/6b,,3b/7,,4>5[4:1]/8b,,,,,,,,,,
{8}
7b/4,3,2,1-5[8:1]/8,,7,,5-1[8:1]/4,,5,2,3>8[8:1]/8<5[8:1],,,,,
1>4[8:1]/4v6[8:1],,,,7,3,2,1/8-4[8:1],,7,6,4-8[8:1]/5,,4,1,2,3>8[4:1],,8<5[4:1],,5>2[4:1],,2<7[4:1],,5-1[8:1],,5,3,2>5[8:1],,2,1,8<5[8:1],,8,
4-7[8:1],,1-4[8:1],,1/6-1[8:1],,6,2,3s7[8:1],,3,1b,,
2b/5,6,7,8/3-7[8:1],,4,,7-3[8:1]/8,,7,2,4<7[8:1]/1V35[8:1],,,,,
5>2[8:1]/8<5[8:1],,,,1,2,4,5/6-2[8:1],,7,8,1/2-6[8:1],,2,5,4,
3/8>3[4:1],,3<6[4:1],,6<1[4:1],,1>4[4:1],,4,,8,1,7/2h[4:1],,4<7[2:1],4,1,,2,,3,,4,5,
{16}
6b/1,,7,,83,,2,4,2,,53,,6,,7,,
8b/4,,3,,25,,7,,63,,2,,1,,8-4[8:1],,,,3,,5-1[8:1],,,,5<3[2:1],,,,5,,,,4b,,,,5,,6,,7h[4:1],,2,,3h[8:1],,4<8[4:1],,,,1,,2,,3,,4,,5,,46,,73,,8b/2h[4:1],,,,
6>4[8:1],,2,,68,,1,,2>4[8:1],,5,,28,,7,,
7>1[8:1],,3,,75,,4,,3>1[8:1],,8,,3b/5,,4,,4<6[8:1],,,,1/4b,,2<8[8:1],,,,2b/6,,4,,3,5,4,6,3,6,2,5,4,7,5b,,,,,,,,
{24}7,8,1,2bqq5[4:14],,,,,,,,
{1},,
