&title=不可逆リプレイス
&artist=My First Story
&first=0.02
&des=第六天魔王
&lv_5=13+
&des_5=
&inote_5=
(200){8},7,,7,,6/2,,4,
4-2[8:1],,,7,,6,{4}6-4[8:1],
{8},8>4[2:1],,,,4,,5,
6<1[4:1],,,2,,2h[2:1],,,,8z4[4:5],
,8,,A8,{4}E1,
{8},,,B6,{2}B5,
{8},6h[4:1],,5h[4:1],,4h[8:3],,,3q5[8:19],
,,5b<4[1:2],{1},,{4},,{8},7h[8:1],
5,7h[8:1],5,7h[8:1],5,6h[8:1],
4,6h[8:1],4,5h[4:1],3,3>1[8:1],4,3,
,6,6,1h[8:1],5,1h[8:1],5,2h[8:1],
4,5h[8:1],3h[8:1],6h[8:1],2h[8:1],7-4[8:1],7,1-5[8:1],
1,5,,7h[8:1]/4h[8:1],,7h[8:1]/4h[8:1],,6h[8:1]/3h[8:1],
,6h[8:1]/3h[8:1],,5h[8:1]/2h[8:1],,1,1,5,
5,{16}2b,4,3,4,{8}3,{16}7b,5,6,5,{8}6,3b/7bpp6[2:1],
{16},,,,,,,,B4,B3,{8}E3,,,{4}1b/5b,
{8}3,5,4,7-3[8:1],5,7,
1-6[8:1],1,4-8[8:1],4,2,2,6,7,
{4}4/8-4[8:1],{8}8/3,2-5-1[16:5],,2/5,6,7-4[8:1],
,7/3-8[8:1],,3/5-1[8:1],,5/1,,2,
{4}7b/4b,{8}8,8V61[4:1],,8/3,{4}2-6[8:1],
2b,{8}8,7/3V52[4:1],,3/8,{4}1-5[8:1],
1b,{8}3,3,6,6,5-1[8:1],7-4[8:1],
5,7,,1,{4}2-5[8:1]/4-8[8:1],2/4,
7b/3b,{8}4,6,3,5,2-6[8:1],4,
2,8-3[8:1],8,5-1[8:1],5,7,7,2,
{4}2-5[8:1],{8}2,7-4-8[16:5],,4/7,3,2>5[8:1],
,2/6<1[8:1],,6/4-8[8:1],,4/8,,7,
{4}1b/5b,{8}6,6V48[4:1],4,6,{4}1-5[8:1],
1b,{8}6,3V51[4:1],7,3,{4}8-4[8:1],
8b,{8}3,3,5,5,4,4,
{16}6,5,6,5,{8}6,{16}3,4,3,4,{8}3,{16}5,2,6,3,
7,4,{8}8<4[2:1],,1,,1,,1,
,1,,2,4,3,3,2>5[16:3]/4-7[16:3],
,,,,,8,1,2/4,
3,5,3,5,4,6,{4}7<4[16:3]/5-2[16:3],
{8},,,1,8,5/7,,3,
4/2<4[2:1],,,,,,,8<4[4:1],
,4>8[8:3],,,8<2[1:1],,,3pp2[8:5],
,,,,,,,,{4}1b/8b,
{8}2,6/3-6[8:1],,3/7,,8,
8,1,2,3,{4}4>2[8:1]/7<4[16:3],7/4-8[16:3],
{8}1h[4:1],,,2,2,4,3,5,
4,5/6<1[8:1],,6/3,{4}2>5[8:1],{8}2/5,6,
7b>5[2:1],,,,,,,1,
{4}1-3[8:1],{8}7,8-4[8:1],,2,,3,
4/2-4[8:1],,,7,{4}7-5[8:1],4-8[8:1],
4,7<4[16:3],{8}2pp2[8:3],,,5,
6,7bqq2[4:3],,2h[8:1],,2h[8:1],,3h[8:1],
,3h[8:1],,4h[8:1],,6,5,5>1[8:5],
,6h[8:1],,6h[8:1],,7h[8:1],,7h[8:1],
,3h[8:1],7h[8:1],2h[8:1],8h[8:1],1,1,6,
6,3,{4}3-1[8:1],{8}7,7-5[8:1],,7-1[8:1]/3-5[8:1],
,7/3,,4,8,3,7,2,
6,{16}1,5,1,5,1,5,1,6,2,7,3,8,4,1h[16:7],
{8}5h[16:7],,,,,7-4[8:1]/4-8[8:1],,4/7,
{16},,5b/1b,2/6,3/7,4/8,{8}5-2[8:1]/1-6[8:1],,5/1,{16},,1b/5b,2/6,
3/7,4/8,{8}5-2[8:1]/1-6[8:1],,5/1,,4/8,3/7,2-5[8:1]/6-1[8:1],
,2b/6b,,4-1[8:1],7-4[8:1],4,7,8-3[8:1]*-5[8:1],
,8b,,2/6,{16},,7,8,{8}7,1/6,
{16}2,4,{8}3,3-8[8:1],8V25[16:3],3,6h[8:1],{16},,6,5,
{8}7-4[8:1],4V61[16:3],7,2-6[8:1],,2,,5-1[8:1]/8-4[8:1],
,8/5,,2-5[8:1],7,2,1V74[4:1],3-8[8:1],
1,3b,{32},,,,1b,2,3,4,5,6,7,8,{8}1b-5[8:1]/6b-1[8:1],,6b/1b,
{16},,4b/8b,7/3,6/2,5/1,{8}8-3[8:1]/4-7[8:1],,8/4,{16},,8b/4b,7/3,
6/2,5/1,{8}8-3[8:1]/4-7[8:1],,8/4,,4-8[8:1],7-4[8:1],4,
7,1,{16}2,4,{8}3,{16}6,5,{8}7,3/8,3-6[8:1]/8-5[8:1],
,3b/8b-3[8:1],,,,4,{4}4-7[8:1],
{8}4/3,2-5[8:1],,2/8-4[8:1],,8/3-8[8:1],,5/3,
{4}6-3[8:1],{8}6/8,1-5[8:1],,7/1,,4bqq1[8:5]/8bqq5[8:5],
4b/8b,,,,,,,2/6,
{4}2-6[8:1]/6-2[8:1],2bV48b[4:1]/6bV84b[4:1],{2}Cf,
E
