&title=瑠璃色
&artist=sdklmr
&first=-0.25
&des_5=AonlyZ
&lv_5=14+
&des=AonlyZ
&inote_5=(240){4},,,,,,,,,,,,,,5h[4:1],
6h[2:1],
,7<6>5>4>3>2<1<8[8:21],{8},,,,,,,,,,,,,,,,,,7,
6,
5,4h[8:5],,,,,1,7,
5,1,{4}3>2<1<8<7<6>5>4[4:5],{8},,,,,,,,8,
7,{4}6>5>4>3>2<1<8<7[8:9],
{8},,,,,,5,4,
3,2,,,4,3,2,1,
8/7,6,{4}5h[4:3],{8},C,,,B1,
,,8h[8:3]/B5/A5,{16},,,,B1/A1,,,,,,,,{4}2h[4:3],
{8},C,,,B6,
,,5h[8:3]/B2/A2,,,{4}B6/A6,
,2h[8:27],,,,,,,,3h[4:1],
{8},3h[4:1],,,3h[4:1],
,,3h[4:1],,,{4}3-7b[8:1],
,2-5[8:1],{8},8-4[8:1],,,{4}2h[4:3],
,,Cf,
,7/5,{8}6,4,{4}5,
4/3,5,4/7,5h[4:1],
6h[4:1],5-2[8:1],{8},8-4[8:1],,,{2}1h[1:1],
{4}4,5,
6,{8}4/5h[4:1],3,2,4/3h[4:1],5,6,
{4}7/2,{8}2/7,1/6,{16},,7,8,{8}6,1,
{4}2>5[8:1],2,{8}7,{16}2,3,{8}4,7,
,,5v2[8:1],6,5,{16}8x,7x,{8}6x,6x/2,
,,8-4[8:1],3,8,{16}3x,2x,{8}1x,1x/7,
6,5,4/3,2,1,8,{4}7h[2:1],
{16}2,3,4,5,{4}6-2[8:1],{8}6,5,{16},,5,6,
7,8,,,{8}1>4[8:1],3,1,8<5[8:1],6,8,
1>4[8:1],3,1,8<5[8:1],6,8,1,2,
4,5,6,7h[8:5],,,{4}2h[2:1],
,7b-4[8:1],{8},1-5[8:1],,,{4}7h[4:3],
,,C,
Cf,2/4,{8}3,5,{4}4,
5/6,4,5/2,{8}4h[4:1],3,
{4}3h[4:1],4-7[8:1],{8},1-5[8:1],{4}1,
{8}8,8h[8:7],,,{4}5,4,
3h[8:1],{8}5/4h[4:1],6,7,5/6h[4:1],4,3,
{4}2/7,{8}7/2,8/3,{16},,2,1,{8}3,8,
{4}7<4[8:1],7,{8}2,{16}7,6,{8}5,2,
,,4v7[8:1],3,4,{16}1x,2x,{8}3x,3x/7,
,,1-5[8:1],6,1,{16}6,7,{8}8,8/2,
3,4,{12}5x,6x,7x,5x,6x,7x,5x,6x,7x,
5x,6x,7x,5h[8:1],{24},,,,{8}4,3,{16}7,6,5,4,
{4}2h[4:1]/3-7[8:1],{8}3,1,2,3,4v7[8:1],5,
4,1,2,3,4h[4:1],5,{16}7,8,1,2,
3,4,5,6,{8}7/1>4[8:1],4,1,8<5[8:1],5,8,
1-5b[8:1],1,{16}1b,Cf,,,{8}6,7qq5[4:1],,5<1[4:1],
4,4,C,{16}2x,3x,{8}4x,5x/1-5[8:1],,1,
4,4,{16}6x,7x,{8}8xh[8:1],5x,{16}6x,7x,{8}8x,6,
2,7h[4:3]/B3/B4/E4/D4/A3/A4,,,{4}2,{8}3,{16}2x,1x,
8x-4[8:1],7x,{24}6x,5x,4x,{4}3x/8b,{8}3,2pp4[4:1],,4>8[4:1],
,5,6>3[8:1],7,6,8-4[8:1],,8,
,,5/3h[4:1],6,7,4/5h[4:1],3>1[8:1],2,
{16}7/3,6,{8}5<8[8:1],,5,C,{16}2,1,{8}3,8,
1-5[8:1],6,{4}1b,{8}7,6pp8[4:1],,8<4[4:1],
1,1,C,{16}3x,2x,{8}1x,8x/4-8[8:1],,4,
1,1,{16}7x,6x,{8}5x,2,{16}6x,5x,{8}4x,5,
2,4h[4:3]/B1/B8/E1/D1/A1/A8,,,{4}2,{8}1,{16}2x,3x,
4x-8[8:1],5x,{24}6x,7x,8x,{4}4b/1x,{8}2,3qq1[4:1],,1>5[4:1],
,8,7-3[8:1],6,7,5v2[8:1],,5,
,,8/2h[4:1],7,6,1/8h[4:1],2>4[8:1],3,
{16}7/2,8,{8}1<6[8:1],,,,5h[4:1],,,{4}5h[8:1],
5b,5/4h[4:1],{24}3,2,1,8,7,6,
{16}5/3-7b[8:1],2,{8}1,{4}3,{16}1,2,3,4,5/7,8,1,2,
{4}7-2[8:1]/3-6[8:1],3/7v4[8:1],{16},,,,7,8,1,2,
3/5-1[8:1],6,{8}7,5,6,6,7/3,7/3,8/4,
{16}1x,2x,{24}3x,4x,5x,{4}6bx/Cf,{8}7,1-4b[8:1],4,1,
8-5[8:1],5,8,{16}3,2,1,8,7/5,4,{8}3,1,
C,1,{16}7,6,{8}5,3,4/2,5,1,
4/7,8,3,2/6,{16}1,5,1,5,1,5,{8}1b,
,,5h[4:3],4,3,C,3,2,
B1,6,7,8h[8:3]/B5/A5,4,3,{16}B1/A1,,{8}7,
6,3,2h[4:3],1,8,C,8,7,
B6,3,4,5h[8:3]/B2/A2,1,8,A6/B6,4,
3,8,7h[8:27],4,3x,2x,4,3x,
2,4x,3x,2,4x,3x,2,3x,
4x,5x,{4}6h[4:1],{8},6h[4:1],,,6h[4:1],
,,6h[4:1],,,{4}6b-2b[8:1],
{1},,,,,,,,{4},3<5[16:3],
6,6,
6,6>4[4:1],4,3,
3,3<5[4:1],5,6,
6,6>4[4:1],4,3,
2,2>4[4:1],5,6,
7,7<5[4:1],4,3,
2,2>4[4:1],5,6,
7,7<5[4:1],4,3,
2,2-5[8:1],{8}7,8-4[8:1],,2h[8:3],
,,5,6,{16},,4,5,{4}4,
,7-4[8:1],{8}2/7,1-5[8:1],,7h[4:1]/1s5[8:1],
,,{4}7-4[8:1],{8},5-1[8:1],,5,
,,{4}2-5[8:1],{8}7,8-4[8:1],,2h[8:3],
,,5,6,{16},,4,5,{4}4,
,7-4[8:1],{8}2/7,1-5[8:1],,7h[8:3]/1s5[8:1],
,,,,7,6,5/4,3,
{4}2,1-5[8:1],{8}6,7-4[8:1],,,,,3,
2,{16},,3,4,{4}3,
,8-4[8:1],{8}3/8,2-5[8:1],,2v3-5[8:1],
{16},,,,,7-4[8:1],,,,,{8}5-1[8:1],,5,
,,{4}8-4[8:1],{8}3,2-5[8:1],,,,,6,
7,{16},,6,5,{4}6,
{16},,,,3x,4x,6x,5x,3x,4x,6x,5x,3x,4x,6x,5x,
3x,4x,6x,5x,2x,3x,7x,6x,2x,3x,7x,6x,1bx,2x,8bx,7x,
{24}1bx,2x,3x,8bx,7x,6x,{8}1-5[8:1],1x,7-4[8:1],7x,2-6[8:1],2x,
8-4[8:1],8x,5-2[8:1],5x,6,6,{16}4-1b[8:1],3,2,1,
{4}8,{8}8-4[8:1],8x,2-5[8:1],2x,7-3[8:1],7x,
1-5[8:1],1x,6-2[8:1],6x,1>4b[8:1],1x,{16}5,6,7,8,
{4}1h[4:1],{16}6,5,4,3,8/2-6[8:1],7,6,5,{4}4/2,
{16}3,2,1,8,4,3,2,1,6/8-4b[8:1],5,4,3,{4}2,
{16}1,8,7,6,{8}4/5h[4:1],3,2,4/3h[4:1],5,6,
7/2,{16}3x,4x,{8}5x>2[8:1],{16}6x,7x,{8}8x/5x,7-4[8:1],,7/1-5b[8:1],
,1b,,6,6,7qq6[4:1],,6<7>8>1[4:1],
5,4,Cf,{16}3x,4x,5x,6,{8}1-5[8:1],,1,
4,4,{16}6x,7x,{8}8xh[8:1],5x,{16}6x,7x,{8}8x,6,
2,{16}3/8,4,5,6,{8}8,{16}2/8,3,4,5,{8}7,{16}7x,8x,
1x-5[8:1],2x,{24}3x,4x,5x,{4}6x/1b,8bz4b[8:1],8xv7-5[8:1],
{8},,3,2,1,8,7,6/5,
5/4,4/3,1/2,8/1,7/8,6/5,7/4,8/3,
2-6[8:1],1-5[8:1],2,1,8-4[8:1],7-3[8:1],8,7,
B2/D2/A1/E2f/B1h[16:0]/A2h[16:0],B6/A5/E6f/A6h[16:0]/B5h[16:0],{16}3x,7x,4x,6x,5x,8x,3x,7x,4x,6x,{8}5x,
{16}2x,3x,6x,5x,2x,6x,3x,5x,4x,7x,1x,6x,2x,5x,3x,4x,
2x,3x,5x,4x,{8}1,2-6[8:1],4,2,5-1[8:1],4,
5/3-8[8:1],2,3,7-4[8:1],6,7,1-5[8:1],8,
{4}1,7/3,{16}6x,2x,5x,3x,4x,1x,6x,2x,
5x,3x,{8}4x,{16}7x,6x,3x,4x,7x,3x,6x,4x,5x,2x,1x,3x,
8x,4x,{8}7x,6/5,4/7,3/8,1/2,3/8,4/7,
5/6,4,7-4[8:1],3,7/1-5[8:1],2,1,6,
{4}7/4,{8}4h[4:3],5,6,Cf,6,7,
B8f,3,2,1h[8:3]/A4/B4f,5,6,A8/B8f,2,
3,6,7h[4:3],8,1,Cf,1,2,
B3f,6,5,4h[8:3]/A7/B7f,8,1,A3/B3f,5,
6,1,{16}7,6,5,4,8,7,6,5,1,8,7,6,
2,1,8,7,3,2,1,8,4,3,2,1,5,4,3,2,
8,1,{8}7,{24}2,3,4,5h[8:1]/7h[16:1],,,{8}8h[16:1],{24}2,3,4,{8}5h[8:1]/7h[16:1],8h[16:1],
{16}2,1,2,1,2,1,2,1,2,1,2,1,{24}2,3,4,5,6,7,
{4}8b-5[8:1]/4-1[8:1],{16}4bv7pp8-5[8:29],Cf,{1},,,,,,,{4},,,{8},{4}4h[1:10],
,,,,,,,,,,,,,,,8qq8[4:15],
E
