&title=GIGANTO MACHINA
&artist=Supa7onyz vs. Sound piercer
&first=0.1
&des=SJTU777 for "Legends"
&lv_5=14+
&inote_5=(77.7)
{2},
{64}Ch[8:3]/E1/E3/E5/E7/B7/B1/B3/B5`B8`B2`B4`B6,,
{32},,,,,,,,,,,,,,,
{96}1b,28,37,4V28V64b[8:5]/6,5V31V75[8:4],,,,,,,,,,,,,,,,,,,,
{4},,,
{4}2h[4:1],8h[4:1],6h[4:1],4,
{96}8b,71,62,5V71V35b[8:5]/3,4V68V24[8:4],,,,,,,,,,,,,,,,,,,,
{4},,,
{8}7h[2:1],A1/B1,B3/A3,A5/B5,Chf[8:3],,,,
{32}8/1,,2,,6,5,7h[16:1],,3,4,2h[16:1],,6,5,8h[16:1],,1h[16:1],4,4,,1h[16:1],6,6,,1,,28,,{64}E1/E2,B8`B2,B7`B3,E7`E4,,,,,
{32}5x,,7,,3,4,2h[16:1],,6,5,7h[16:1],,3,4,1h[16:1],,8h[16:1],5,5,,8h[16:1],3,3,,8,,71,,{64}E1/E8,B1`B7,B2`B6,E3`E6,,,,,
{64}4bx,3x,2x,1hx[64:9],,,7,,
{32},,5,,6,5,7h[16:1],,5,3,4,1,
{64}5bx,6x,7x,8hx[64:9],,,2,,
{32},,4,,3,4,2h[16:1],,4,6,5,7,
{48}1x,2,3,45,6,7,1x,2,3,45,6,7,2x,3,4,56,7,8,2x,3,4,56,7,8,
{64}2,3,4,5,6,7,8,1,2,3,4,5,6,7,8,1,2/6,5,4,3,2,1,8,7,6,5,4,3,2,1,8,7,
{96}6hx[8:1]/2bz6-8-5-1-4-2b[16:10],A2f,B2,C,B6,,,,,,,,,,,,,,,,,,,,
{4},,,
{24}1,1,1,3,3,3,5w1b[6:1],5,5,7,7,7,5b,,,,,,45,,36,,27,,
{48}38,1,2,3,4,5,68,1,2,3,4,5,6/8-4V61b[4:1],1,2,3,4,5,
{24}6/1,3,7,
{4}2b/8b,
{48}2h[24:1],,3h[24:1],,4,,6h[24:1],,7h[24:1],,8,,1>5b[12:1]/5,,,,37,,,,,,,,16,,,,,,
{24}6h[16:1],7,8,1h[16:1],2,3,5h[16:1],6,7,1hb[16:1],2,3,5h[16:1],6,7,
{12}2-5[16:1]/8,46,,
{24}8V64[12:1]/2,7,6,3,3,2,
{8}1b/8b,2,
{48}18,,7,5,6,,45,,3,4,2,4,
{12}1-7[16:1],26,,
{8}6-2[16:1]/1,
{24}4,5,4,
{8}3-5[16:1]/6,
{48}8,,1,,8,,
{12}36,7,2,
{48}61,8,7,6,5,4,31,8,7,6,5,4,3/1-5V38b[4:1],8,7,6,5,4,
{24}3/8,6,2,
{4}7b/1b,
{48}7h[24:1],,6h[24:1],,5,,3h[24:1],,2h[24:1],,1,,8<4b[12:1]/4,,,,62,,,,,,,,83,,,,,,
{24}3h[16:1],2,1,8h[16:1],7,6,4h[16:1],3,2,8hb[16:1],7,6,4h[16:1],3,2,
{24}1b/A7f/E7/B7,,3,4,2,,1b/A8f/B8/E8,,4,5,3,,1b/A2f/B2/E3,,5,4,6,,1b/A3f/B3/E4,,6,5,7,
{48}8,,
{24}1,2,3,6,7,8,
{48}1-5[16:1],2,3,6,7,8,2,3,4,6,7,8,
{8}1b>5[8:1]*<5[8:1],,,,
{12}1-5[16:1]/8,34,,A1f/7,
{24}6,
{8}4,
{32}8z4b[8:1],1,7,,
{24}65,,2,
{80}A8f,,,,,,,,,,
{24},,1,
{12}2-6[16:1]/8,34,,
{8}A2f/8,
{24}4,3,2,7-3[16:1],6,5,3,2,1,
{12}A7f,2,
{48}6,5,,2,
{8}3x-8[16:1]/4x-7[16:1],25,34,16,
{28}5s1b[8:1]/6z2b[8:1],56,56,56,5x/6x,5x/6x,5x/6x,
{24}5x/6x,,,,,7,
{12}8-2[16:1],73,,
{8}3-7[16:1]/8,
{24}5,4,5,
{8}6-4[16:1]/3,
{48}1,,8,,1,,
{12}63,2,7,
{24}4/5-1[16:1],,78,,6,3,A5f,,2,,
{48}7x,8x/1x,2x,3x,
{48}4z8b[8:1]/5,6,7,81,2,3,
{48}45,6,7,18,2,3,
{24}4b/5b,,,,,1,
{12}3-7[16:1]/5,21,,
{8}A3f/5,
{24}1,2,3,6-2[16:1],7,8,2,3,4,
{12}A6f,4,
{48}7,8,,3,
{24}1-6-1b[8:1]/2-5-2b[8:1],,38,,,3x/8x,1x/2x,,,,,,
{36}7xz3b[8:1],8xs4b[10:1],7x,8x,7x,8x,7x,8x,7x,
{24}8bx,,,,,,
{16}14,25,36,47,
{24}56,47,38,
{24}12,38,47,
{48}6,5,4,3,2,1,8,7,6,5,4,3,
{64}E2,E3,E4,E5,E6,E7,E8,E1,E2,E3,E4,E5,E6,E7,E8,E1,
{4}5bV71-3b[8:5],,Ch[8:3],,8<2[8:5]/1h[2:1],,,,5<3[8:5]/4h[2:1],,,,
{8}2h[2:1],A8/B8,B6/A6,A4/B4,Chf[8:3],,,,
{32}18,,7,,3,4,2h[16:1],,7,5,6h[16:1],,3,4,1h[16:1],,7h[16:1],4,4,,7h[16:1],2,2,,8,,71,,{64}E1/E7,B1`B6,B2`B5,E3`E5,,,,,
{32}5x/4x,,3,,6,5,7h[16:1],,2,4,3h[16:1],,6,5,8h[16:1],,2h[16:1],5,5,,2h[16:1],7,7,,1,,28,,{64}E1/E3,B8`B3,B7`B4,E7`E5,,,,,
{64}4bx,3x,2x,1hx[64:9],,,6,,
{32},,4,,6,5,8h[16:1],,5,3,4,1,
{64}5bx,6x,7x,8hx[64:9],,,3,,
{32},,5,,3,4,1h[16:1],,4,6,5,8,
{48}4x,3,2,18,7,6,4x,3,2,18,7,6,3x,2,1,87,6,5,3x,2,1,87,6,5,
{64}3,2,1,8,7,6,5,4,3,2,1,8,7,6,5,4,3/7,8,1,2,3,4,5,6,7,8,1,2,3,4,5,6,
{16}8/7-4[16:1],2,3v8[16:1]/5,6,
{32}7,1,1,,3,6,6,,
{32}54,,6,5,8-4b[16:1],,1,,
{64}7,6,5,,1,2,3,
{64}84,,,,,,3,,,
{16}8/2-5[16:1],7,6v1[16:1]/4,3,
{32}2,8,8,,6,2,2,,
{32}3-8b[16:1],,54,54,,7,8,,
{48}73,6,5,4,3,2,1,8,7,56,4,3,
{16}1/2-5[16:1],7,6v1[16:1]/4,3,
{32}2,8,8,,6,3,3,,
{32}45,,3,4,1-5b[16:1],,8,,
{64}2,3,4,,8,7,6,
{64}15,,,,,,6,,,
{48}3b,4,3,4,2,5,
{48}2,5,2,1,2,1,
{48}5b,6,5,6,4,7,
{48}4,7,8,7,8,7,
{48}1/5b,2,3,4,5,6,3b/7,8,1,2,3,4,1b/5,6,7,8,1,2,3/7b,4,5,6,7,8,
{32}1/5v2[16:1],,3,4,1-6[16:1],,6,,
{32}5,7,7,,1,4,4,,
{32}81,,6,4,5-1b[16:1],,6,,
{48}4,3,2,18,7,6,
{64}45,,,,,,2,,
{32}8/4v7[16:1],,6,5,8-3[16:1],,3,,
{32}4,2,2,,8,5,5,,
{32}2-5b[16:1],,81,18,,6,5,,
{48}62,7,8,1,2,3,4,5,6,87,1,2,
{32}3/4v7[16:1],,6,5,8-3[16:1],,3,,
{32}4,2,2,,8,5,5,,
{32}7/8v3[16:1],,2,1,4-7[16:1],,7,,
{32}8,6,6,,4,1,1,,
{48}2b,1,2,1,3,8,3,8,3,4,3,4,8b,7,8,7,1,6,1,6,5,6,5,6,
{48}3/7b,2,1,8,7,6,5/1b,4,3,2,1,8,7/3b,6,5,4,3,2,1/5b,8,7,6,5,4,
{16}3-7[16:1]/7,8,56,4,3V15b[8:1]/8,6,5V31b[8:1],7,3b/8,6,7,
{32}1,8,7,6,5,8,7,6,5,4,
{16}3/7^2[16:1],2,34,5,7v4b[12:1]/2,3,4V61b[8:1],2,1/7b,3,2,
{32}1,2,3,4,5,2,3,4,5,6,
{64}1,2,3h[24:1],,,,8,7,6h[24:1],,,,4,3,2h[24:1],,,,5,6,7h[24:1],,,,2,,3,,8,,1,,
{64}7,6,5h[24:1],,,,1,8,7h[24:1],,,,3,2,1h[24:1],,,,5,4,3h[24:1],,,,5,,4,,7,,6,,
{32}8b,4,{48}6,5,6,4,5,4,7,5,7,{32}4b,8,{48}2,1,2,8,1,8,3,1,3,
{64}2/7bx,3,4,5,6,7,8,1,2/6bx,3,4,5,6,7,8,1,2/5bx,3,4,5,6,7,8,1,2/7bx,3,4,5,6,7,8,1,
{16}6x-2[16:1]/2,4,35,4,6V48b[8:1]/2,1,8V64b[8:1],2,6b/1,2,3,
{32}4,3,2-6V48b[12:2],1,8,3,2,1,8,7,
{32}2b/6,,8,,7,,6,,5-1V73b[12:2],6,7,8,5,4,3,2,
{32}5b/1,,2,,3,,4,,
{32}7,5,6,4,5,3,4,2,
{32}8,1,7,2,5,4,6,3,7,5,6,2,4,3,8,1,5,4,6,3,8,1,7,2,8,5,7,1,4,2,5,4,
{48}2,1,2,1,2,1,3,4,3,4,3,4,8,7,8,7,8,7,5,6,5,6,5,6,1,8,1,8,1,8,2,7,2,7,2,7,3-7[16:1],6,3,6,3,6,4-8[16:1],5,4,5,4,5,
{8}5x-1[16:1],6x-2[16:1],7x-3[16:1],8x-4[16:1],1x,2x,
{24}26,26,26,48,48,48,
{16}12,56,78,34,
{32}1,5,3,7,1,5,3,7,
{64}4/8x,3/7x,2/6x,1/5x,8,7,6,5,4/8x,3/7x,2/6x,1/5x,8,7,6,5,4/8x,3/7x,2/6x,1/5x,8,7,6,5,4/8x,3/7x,2/6x,1/5x,8,7,6,5,
{32}48,,7,5,6,,3,4,
{32}28,,45,,
{24}17,
{48}3,2,7,6,
{36}1b,5b,1b,5b,1b,5b,1b,5b,1b,
{40}6,,2,4,3,5,,7,8,6,
{16}24,46,68,28,
{48}2,1,2,
{32}3,4,
{48}7,8,7,
{32}6,5,
{32}41,2,3,4,15,8,7,6,
{64}1-5[32:1]/5,2,3,4,5/1h,6,7,8,1/5,4,3,2,1/5h,8,7,6,
{64}1h/5`B1`B5,
{1},,,
