&title=FIRST PROMIZE
&artist=あとぅす feat.つゆり花鈴
&first=0.56
&des_5=Elna
&lv_5=13+
&des=Elna
&inote_5=(150),,,,E6,E5,E4,
{8}E7,E3,C,
{16}B6,B5,,,B2/B3,,B8,,,,,,,,
{4}E4,E5,E6,
{8}E7,E3,
{16}B7/B8,,,B2/B3,,,B5,,C,,,,
{8}B7,B3,E1/E2,,E8/E3,,E7/E4,,B3,B4,
{16}B1/B2,,,B5/B4,,,B7/B8,,C,,
{8}B6,B5,B4,B3,,,,
{16}E4,,,E5,,,E6,,C,,,,
{4}E7,E6,E4,E3,
8h[8:1]/1h[8:1],1h[8:1]/2h[8:1],8h[8:1]/1h[8:1],7xh[8:1]/8xh[8:1],
{8}6/1,2,8/3,7,6<1[8:1]/4,5,6b/2b,
{16}3,3h[16:3],,,8,8,2-4[8:1],,
{8}1,8/2,7,
{16}6,5,6,5,7-4[8:1],,4-6[8:1],,2h[4:1],,,,,,8/3,,
6>3[8:1],5,7,,2,,2,1,8-4[8:1],,4,5,6h[8:1],,,,
{16}2,5,3,4,1,,5/3,,5h[8:1]/3h[8:1],,,,7/8>3[8:1],,6,,8b/5b,,
6,6h[16:3],,,4,4,7-5[8:1],,8,,7/1,,2,,3,4,3,4,2-5[8:1],,5-3[8:1],,7h[4:1],,,,
,,6/1,,2>5[8:1],4,3,,6,7,8-4[8:1],,8,,4,3,2h[8:1],,4x,1h[16:3],,,
7,,5V31[4:1],6,,8,,7,,6,6,,
7x/8x,,6b/1b,,2,4,3,,6,5,6,,4,,5/3,,2,1,3,,6,5,6,,
3,4,1,,5/2,,
{8}7<4[8:1]/8,6,7/1,
{16}2,1,
8V25[4:1],,4,,5>1[4:1],,6,,
{8}7p4[8:3],8,,,1h[8:1],,1h[8:1],,
2/4<6[8:1],4,4p6[4:1]/3,,7h[4:1],,,
5x,4-7[8:1],4,2-5[8:1],2,8-3[8:1],8,4h[4:1],,,
{16}6,5,
{8}8-4[8:1],4V63[4:1],4,3<1[8:3],,,2-6[8:1],,2,,
8h[2:1]/4h[4:1],,,,
{28}4,3,2,1,8,7,6,5v2[8:1]/1-6[8:1],,,,,,,
{8}Cf,,7x/3x,7/3,6/4-8[8:1],5,4/2>5[8:1],,2/6,
{16}6,7,8-4[8:1],,8,,4,3,2,,
{8}5x/1x-5[8:1],2,1/6-8[8:1],7,6/4,3,
2-6[8:1],1-5[8:1],2x-4[8:1],1x-7[8:1],2x<3[8:3],1x,2x,,8,7,
6-8[8:1],2,6-4[8:1],3,6,2,1-5[8:1],7,1-3[8:1],6,1,7,8<3[8:3]/4,,
4,2,8h[4:1],,
4x-7[8:1],4x,2-5[8:1],2,8,
{16}8,7,6-1[8:1],,
{8}6,4-7[8:1],4,8,8,7x-3[8:1]/1x-5[8:1],6/2,Cf,,
{16}2x,6,2,6,4x,5,4,5,3x,4,2,5,3x,4,2,5,1x,6,2,7,3x,8,2,7,1x,2,3,4,
6x,5,6,5,7x,4,7,4,8x,7,6,5,8x,1,2,3,5x,4,5,4,6x,5,7,4,8x,3,
1,2,
1x-5[8:1],,8x/3x,,1x/2x,,,,
4x,6,4,6,3x,5,3,5,
{8}2x-6[8:1],7/1,6xV82[4:1]/2,,2xV46[4:1],,6x,,8x,,
{16}1x,7,1,7,2x,6,3,5,4x,6,5,7,4x,8,3,1,4x,5,6,7,8x,1,2,3,4x-8[8:1]/7x-5[8:1],,,,7x/4x,,,,
2x,4,3,5,2,4,3,5,1x,6,8,7,1x,2,3,4,
7x,5,6,4,7x,5,6,4,7x,8,1,2,3x,4,5,6,8x,7,8,7,4x,5,4,5,2x,1,2,1,3x,8,3,8,
5x,6,1,7,3x,4,1,7,5x,6,3,8,
{8}2x,1x/3x,8x/4x,8,8/3,8,8/2,7,6/4,3,2/5,5,5/3,5,5/4,
B4/B3,B6/B7,
{16}1,8,2,7,2,7,5,6,5,6,1,7,3,4,2,8,5,6,
{8}1,8/1,
{16}E6,E5,E4,,
B2/B3,B6/B7,,
1-5[8:1],8,2,7,1,
7xh[8:1],,,,
{8}7h[8:1]/B6/B5,,7h[8:1]/B1/B2,E4/B3,E6/B6,
{16}1,8,2x,3,4,5,6,7,
{24}8x,1,2,3,4,5,6,7,8,
{32}1x,2,3,4,5,6,7,8,
{8}1b-5[8:1]/4b-8[8:1],,1-6[8:1]*-3[8:1],,1,,
5/4,3,
{16}2<4[8:3],4,3,4,2,,
{8}5x,5x-8[8:1],,5/2-6[8:1],1,7-4[8:1]*-2[8:1]/2,,7,,
5pp4[8:3]/1,,5,4qq5[8:3],3,2,1,8,8w4[8:1],,8b,,
6-1[8:1],,6/2-7[8:1]*-5[8:1],,2,,6/4,6/4,
{16}7>5[8:3],5,6,5,7,,
{8}4x,4x-1[8:1],,8-5[8:1]*-3[8:1]/4,7,8b,,4/2,4/2,1-5[8:1],7-4[8:1],1,7,
2,2,2/4,2,
{16}3,5,4,6,5,7,4,8,
{8}3b>8[8:1],7,6/3,7,6/1,6/1,5<2[4:1],3,2<5[4:1],3,4pp3[16:5],3,2h[4:1],,,
2,1x-4[8:1]/2x-4[8:1],,1-6[8:1]*-5[8:1]/2,,1,,
7x/4x,6,
{16}3,5,2,6,4,7,1,8,2,7,3,6,4<7[8:1],,
{8}3,4/1b-6[8:1]*-4[8:1],,1<3[4:1],,1x/7xh[4:1],,,
8,7/1,
{16}2-6[8:1],4,3,4,2,,
{8}7<2[4:1],7,3,3,1b,1,8/2,8/2,6,7/5,3,4/2,
{16}1,5,2,5,3,5,4,6,5,7,4,8,
{32}E4,E5,E6,E7,E8,E1,E2,E3,E4/Cf,,,,,,,,
{8}7x/5x,7/5,8x/1x,8/1,4x/2x,4/2,
{16}3x,4,5,6,7,8,
{24}1x,2,3,4,5,6,7,8,1,
{32}2x,3,4,5,6,7,8,1,2b/6b,,,,
{16}3x,3xh[16:3],,,5,4,6<1[8:1],,5,,6/2,,2,,
3,4,2-5[8:1],,5V38[4:1],,6,,7h[4:1],,,,,,
{8}6/1,
{16}1<6[8:1],8,2,,3,,3x,4,5-1[8:1],,1,,1,8,7h[8:1],,
1x,8,2,1,3<6[8:1],,7x,,8-4[8:1]/3,,,,
{8}8,1,2b/5b,
{16}6,6h[16:3],,,4,5,3>8[8:1],,
7,,6/3,,5,,6,5,7-4[8:1],,
{8}4V61[4:1],3,2h[4:1],,,8/3,
{16}7<4[8:1],5,6,,3,2,1-5[8:1],,1,,5,6,7h[8:1],,5x,8h[16:3],,,
2,,4V68[4:1],3,,1,,2,,3,3,,
2x/1x,,7bq1[4:7]/3bq5[4:7],,,,
{4},,,,,,,,
E
