&title=iL
&artist=Ice
&first=0
&des=Youters
&lv_5=13+
&inote_1=(160)
&inote_5=(80){1},
{4}8-5[16:10]/1h[8:1],2h[8:1],3h[8:1],4h[8:1],3V51[16:10]/5h[8:1],6h[8:1],7h[8:1],8h[8:1],
{4}7V15[2:1],3h[8:1],5-8[4:1],4h[8:1],2V84[2:1],6h[8:1],4-1[4:1],5h[8:1],
{16}8,1,8,2,8,3,8,4,8,4,7,4,6,4,5,5,3,4,2,4,1,4,8,4,8,4,8,5,8,6,1,7,
{4}8h[8:3]/2qq5[4:2],,{8}5qq8[4:2],,6,7,8qq1[16:6],,7,6,{8}5,6,7,8,
{16}1,8,1,7,1,6,1,5,1,5,2,5,3,5,4,4,6,5,7,5,8,5,1,5,1,5,1,4,1,3,8,2,
{8}1h[8:1]/7pp4[4:2],,2,3,{8}4pp1[4:2],4,3,2,1pp8[16:6],1,2,3,{8}4,3,2,1-5[8:14]/8,
{1}1h[24:27],{24},,,,2,3,{4}4h[16:9],,{8},4w8[160#8:30],{1}4,,
(160)
{16}2b/7b,,,,,,1,8,1h[16:3],,,7h[16:3],,,5h[8:1],,{12}8,7,6,1,2,3,7,6,5,1,2,3,
{16}4h[16:4]/8,,,,,,8,1,7h[16:4],,,,,,8,,{12}2,3,4,8,7,6,{8}15,74,25,47,
{16}1h[4:1]6,,,,,,8,8,8h[4:1],,,,,,2,2,{12}8,7,6,2,3,4,7,6,5,1,2,3,
{16}4h[16:4]/8,,,,,,8,8,1h[16:4],,,,,,7,7,{12}2,3,4,7,6,5,{16}1,8,2,7,3,6,4,5,
{16}3b^8[8:1]/6b,,,,3,,7,6,5h[16:2],,,3h[16:2],,,8h[16:2],,1-5[8:1],,,7,1,,8,,4-1[8:1]/8-5[8:1],,,,48,,,,
{16}6^1[8:1]/2,,,,6,,2,3,4h[16:2],,,6h[16:2],,,1h[16:2],,8-4[8:1],,,2,8,,1,,5q1[8:1]/1q5[8:1],,,,51,,,,
{16}3^8[8:1]/7,,,,3,,7,6,5h[16:2],,,3h[16:2],,,8h[16:2],,1-5[8:1],,,7,1,,8,,4/8-4[8:1],,,,{12}4,3,2,
{4}1bw5[8:1],,8b-5[8:1]*-3[8:1],,2b-6[8:1],2/8^5[8:1]*^3[8:1],8bw4[8:1],8b,
{16}2-7[8:1]/6-3[8:1],,,,26,,,,1-5[8:1]/5,,,6,1,,7,,8-4[8:1],,,3,8,,2,,1^4[8:1],,,,17,,7,6,
{16}5-1[8:1],,,,52,,,,8-4[8:1],,,3,8,,2,,1^4[8:1],,,6,1,,7,,8,,5,6,7,8,1,2,
3h[4:1]/6,,,,6,4,6,4,6,3,5,3,5,3,5,2,4h[4:1],,,,3,5,3,5,3,6,4,6,4,6,4,7,
{4}5h[4:1]/8-3[8:1],8,4h[4:1]/1-6[8:1],1,{8}87,34,12,56,{16}4,8,3,7,2,6,1-5[16:1],5h[16:1],
,,1,,8-4[16:1],,7,,8b/2v5[16:1],,,2b/6-1[16:1],,,6b/3-7[16:1],,
,,3,,8-4[16:1],,2,,8b/6v3[16:1],,,6b/2-7[16:1],,,2b/4-8[16:1],,
,,4,,1-5[16:1],,2,,1b/7-4[16:1],,,7b/3^8[16:1],,,3b,,
{32}7,6,5h[32:4],,,,1,2,3h[32:4],,,,8,7,6h[32:2],,2,3,4h[32:4],,,,8,7,6h[32:4],,,,{48}8,1,2,3,4,5,
{16}7,,6,,1,,3,4,3,,2,,18,,4,5,4,7,,,65,,78,,12,,34,,1h[32:1],8h[32:1],1h[32:1],8h[32:1],{32}2,3,4,,{16}8,1,8,1,8,1,{32}7,6,5,,{16}1,8,1,8,1,8,{32}1,2,3,,{16}6,6,{32}8,1,2,,{16}5,5,{24}3,4,3,4,3-8[16:1],4,3,4,3,4,3,4,
{1}3bqq5[2:7]*pp7[2:7],,,,
{2}6qq1[4:11],7h[4:1],8h[4:1],1h[4:1],2h[4:1],3h[4:1],4h[4:1],
{24}45,3,2,1,8,7,63,2,1,8,7,6,
{16}5/1b,2,3,4,8,7,6,5,3,2,1,8,5,6,7,8,1,2,3,4,1,2,3,4,7,6,5,4,{24}1,2,3,7,6,5,
{16}8,7,6,5,4,3,2,1,5,4,3,2,6,5,4,3,2/8h[4:1],,,,1,2,3,4,6,7,8,1,2,3,4,5,
2h[8:1]/6h[4:1],,,,2,6,1,5,{12}8h[12:1],4h[12:1],7h[12:1],5h[12:1],6h[12:1],5h[12:1],
{16}6,7,8,1,5,6,7,8,{24}2,3,4,1,2,3,7,6,5,8,7,6,15,2,3,4,5,6,37,8,1,2,3,4,51,6,7,8,1,2,37,4,5,6,7,8,
{16}1,5,2,6,3,7,4,8,{24}5,1,5,1,5,1,5-1[12:1],1,5,1,5,1,
{16}5b,,,,84,7,6,5,48,3,2,1,84,37,26,15,8v3[8:1],,4-7[8:1],,8,,4,,3,2,1,8,73,2,1,8,
{16}3/7,,,,15,2,3,4,51,6,7,8,15,62,73,84,1v6[8:1],,5-2[8:1],,1,,5,,6,7,8,1,2,3,4,5,
62,3,4,58,7,6,51,2,3/7-4[8:1]*-3[8:1],,,,7,,,,
51,2,3,47,6,5,3,2,4/1w5[8:1],,,,1,,,,
2,4,3,7,5,6,1h[8:1],,7,5,6,2,4,3,8h[8:1],,1,3,2,7,5,8,1,,2/7h[8:1],,{24}2,3,4,5,6,7,8,1,2,
{16}35,,,,84,7,6,5,48,3,2,1,84,37,26,15,8v3[8:1],,4-6[12:1],,8,,4,,3h[8:1],,{24}6,7,8,1,2,3,4,5,6,
{16}3/7,,,,15,2,3,4,51,6,7,8,15,62,73,84,1v6[8:1],,5-3[12:1],,1,,5,,6h[8:1],,{24}3,2,1,8,7,6,5,4,3,
{16}7,5,6,2,4,3,7,1,8w4[8:1],,,,8,,,,{16}2,4,3,7,5,6,2,8,1-6[8:1]*-4[8:1],,,,1,,,,
7,5,6,2,4,3,8h[8:1],,2,4,3,7,5,6,1h[8:1],,8,6,7,2,4,1,8,,7/2h[8:1],,{24}7,6,5,4,3,2,1,8,7,
{16}2,4,3,4,1,6,3,4,8,7,3,4,2,1,5,6,{24}4,5,4,5,4,5,3,6,3,6,3,6,2,7,2,7,2,7,1-5[8:1]/8,,,,,,
{8}1b^3[12:1]/7b,7,1-5[8:1]/6,6,1^3[12:1]/7,7,1/8-4[8:1],8,8^6[12:1]/3,3,8/2,2,{24}1,2,3,7,6,5,2,3,4,8,7,6,{8}1^3[12:1],15,1-5[8:1]/6,6,1^3[12:1]/7,7,1/8-4[8:1],8,8^6[12:1]/2,2,8/1,1,{24}2,3,4,1,2,3,7,6,5,8,7,6,
{8}1^4[8:1],1,1/6,6,{24}7,6,5,1,2,3,8,7,6,2,3,4,{8}8^5[8:1],8,8/3,3,{24}2,3,4,8,7,6,1,2,3,7,6,5,
{24}3,2,1,8,7,6,4,3,2,1,8,7,5,4,3,2,1,8,6,5,4,3,2,1,{16}4,5,4,5,3,6,3,6,2,7,2,7,1,8,1,8,
{8}8^6[12:1]/1,1,8-4[8:1]/3,3,8^6[12:1]/2,2,8/1-5[8:1],1,1^3[12:1]/6,6,1/7,7,{24}8,7,6,2,3,4,7,6,5,1,2,3,{8}8^6[12:1],84,8-4[8:1]/3,3,8^6[12:1]/2,2,8/1-5[8:1],1,1^3[12:1]/7,7,1/8,8,{24}7,6,5,8,7,6,2,3,4,1,2,3,
{8}8^5[8:1],8,8/3,3,{24}2,3,4,8,7,6,1,2,3,7,6,5,{8}1^4[8:1],1,1/6,6,{24}7,6,5,1,2,3,8,7,6,2,3,4,
{24}6,7,8,1,2,3,5,6,7,8,1,2,4,5,6,7,8,1,3,4,5,6,7,8,{32}16,5,4,3,2,1,8,7,62,5,4,3,2,1,8,7,36,5,4,3,2,1,8,7,63,5,4,3,2,1,8,7,
{8}26,43,18,75,{16}4,8,3,7,2,6,1,5,{4}4<8[8:1]/8,{24}4/8,1,2,3,4,5,1,5,1,5,1,5,1-5[16:1],5,1,5,1,5bp3[16:61],1bp7[4:15],
&inote_6=(80){1},
{4}8-5[16:10]/1h[8:1],2h[8:1],3h[8:1],4h[8:1],3V51[16:10]/5h[8:1],6h[8:1],7h[8:1],8h[8:1],
{4}7V15[2:1],3h[8:1],5-8[4:1],4h[8:1],2V84[2:1],6h[8:1],4-1[4:1],5h[8:1],
{16}8,1,8,2,8,3,8,4,8,4,7,4,6,4,5,5,3,4,2,4,1,4,8,4,8,4,8,5,8,6,1,7,
{4}8h[8:3]/2qq5[4:2],,{8}5qq8[4:2],,6,7,8qq1[16:6],,7,6,{8}5,6,7,8,
{16}1,8,1,7,1,6,1,5,1,5,2,5,3,5,4,4,6,5,7,5,8,5,1,5,1,5,1,4,1,3,8,2,
{8}1h[8:1]/7pp4[4:2],,2,3,{8}4pp1[4:2],4,3,2,1pp8[16:6],1,2,3,{8}4,3,2,1-5[8:14]/8,
{1}1h[24:27],{24},,,,2,3,{4}4h[16:9],,{8},4w8[160#8:30],{1}4,,
(160)
{16}2b/7b,,,,,,1,8,1h[16:3],,,7h[16:3],,,5h[8:1],,{12}8,7,6,1,2,3,7,6,5,1,2,3,
{16}4h[16:4]/8,,,,,,8,1,7h[16:4],,,,,,8,,{12}2,3,4,8,7,6,{8}15,74,25,47,
{16}1h[4:1]6,,,,,,8,8,8h[4:1],,,,,,2,2,{12}8,7,6,2,3,4,7,6,5,1,2,3,
{16}4h[16:4]/8,,,,,,8,8,1h[16:4],,,,,,7,7,{12}2,3,4,7,6,5,{16}1,8,2,7,3,6,4,5,
{16}3b^8[8:1]/6b,,,,3,,7,6,5h[16:2],,,3h[16:2],,,8h[16:2],,1-5[8:1],,,7,1,,8,,4-1[8:1]/8-5[8:1],,,,48,,,,
{16}6^1[8:1]/2,,,,6,,2,3,4h[16:2],,,6h[16:2],,,1h[16:2],,8-4[8:1],,,2,8,,1,,5q1[8:1]/1q5[8:1],,,,51,,,,
{16}3^8[8:1]/7,,,,3,,7,6,5h[16:2],,,3h[16:2],,,8h[16:2],,1-5[8:1],,,7,1,,8,,4/8-4[8:1],,,,{12}4,3,2,
{4}1bw5[8:1],,8b-5[8:1]*-3[8:1],,2b-6[8:1],2/8^5[8:1]*^3[8:1],8bw4[8:1],8b,
{16}2-7[8:1]/6-3[8:1],,,,26,,,,1-5[8:1]/5,,,6,1,,7,,8-4[8:1],,,3,8,,2,,1^4[8:1],,,,17,,7,6,
{16}5-1[8:1],,,,52,,,,8-4[8:1],,,3,8,,2,,1^4[8:1],,,6,1,,7,,8,,5,6,7,8,1,2,
3h[4:1]/6,,,,6,4,6,4,6,3,5,3,5,3,5,2,4h[4:1],,,,3,5,3,5,3,6,4,6,4,6,4,7,
{4}5h[4:1]/8-3[8:1],8,4h[4:1]/1-6[8:1],1,{8}87,34,12,56,{16}4,8,3,7,2,6,1-5[16:1],5h[16:1],
,,1,,8-4[16:1],,7,,8b/2v5[16:1],,,2b/6-1[16:1],,,6b/3-7[16:1],,
,,3,,8-4[16:1],,2,,8b/6v3[16:1],,,6b/2-7[16:1],,,2b/4-8[16:1],,
,,4,,1-5[16:1],,2,,1b/7-4[16:1],,,7b/3^8[16:1],,,3b,,
{32}7,6,5h[32:4],,,,1,2,3h[32:4],,,,8,7,6h[32:2],,2,3,4h[32:4],,,,8,7,6h[32:4],,,,{48}8,1,2,3,4,5,
{16}7,,6,,1,,3,4,3,,2,,18,,4,5,4,7,,,65,,78,,12,,34,,1h[32:1],8h[32:1],1h[32:1],8h[32:1],{32}2,3,4,,{16}8,1,8,1,8,1,{32}7,6,5,,{16}1,8,1,8,1,8,{32}1,2,3,,{16}6,6,{32}8,1,2,,{16}5,5,{24}3,4,3,4,3-8[16:1],4,3,4,3,4,3,4,
{1}3bqq5[2:7]*pp7[2:7],,,,
{2}6qq1[4:11],7h[4:1],8h[4:1],1h[4:1],2h[4:1],3h[4:1],4h[4:1],
{24}45,3,2,1,8,7,63,2,1,8,7,6,
{16}5/1b,2,3,4,8,7,6,5,3,2,1,8,5,6,7,8,1,2,3,4,1,2,3,4,7,6,5,4,{24}1,2,3,7,6,5,
{16}8,7,6,5,4,3,2,1,5,4,3,2,6,5,4,3,2/8h[4:1],,,,1,2,3,4,6,7,8,1,2,3,4,5,
2h[8:1]/6h[4:1],,,,2,6,1,5,{12}8h[12:1],4h[12:1],7h[12:1],5h[12:1],6h[12:1],5h[12:1],
{16}6,7,8,1,5,6,7,8,{24}2,3,4,1,2,3,7,6,5,8,7,6,15,2,3,4,5,6,37,8,1,2,3,4,51,6,7,8,1,2,37,4,5,6,7,8,
{16}1,5,2,6,3,7,4,8,{24}5,1,5,1,5,1,5-1[12:1],1,5,1,5,1,
{16}5b,,,,84,7,6,5,48,3,2,1,84,37,26,15,8v3[8:1],,4-7[8:1],,8,,4,,3,2,1,8,73,2,1,8,
{16}3/7,,,,15,2,3,4,51,6,7,8,15,62,73,84,1v6[8:1],,5-2[8:1],,1,,5,,6,7,8,1,2,3,4,5,
62,3,4,58,7,6,51,2,3/7-4[8:1]*-3[8:1],,,,7,,,,
51,2,3,47,6,5,3,2,4/1w5[8:1],,,,1,,,,
2,4,3,7,5,6,1h[8:1],,7,5,6,2,4,3,8h[8:1],,1,3,2,7,5,8,1,,2/7h[8:1],,{24}2,3,4,5,6,7,8,1,2,
{16}35,,,,84,7,6,5,48,3,2,1,84,37,26,15,8v3[8:1],,4-6[12:1],,8,,4,,3h[8:1],,{24}6,7,8,1,2,3,4,5,6,
{16}3/7,,,,15,2,3,4,51,6,7,8,15,62,73,84,1v6[8:1],,5-3[12:1],,1,,5,,6h[8:1],,{24}3,2,1,8,7,6,5,4,3,
{16}7,5,6,2,4,3,7,1,8w4[8:1],,,,8,,,,{16}2,4,3,7,5,6,2,8,1-6[8:1]*-4[8:1],,,,1,,,,
7,5,6,2,4,3,8h[8:1],,2,4,3,7,5,6,1h[8:1],,8,6,7,2,4,1,8,,7/2h[8:1],,{24}7,6,5,4,3,2,1,8,7,
{16}2,4,3,4,1,6,3,4,8,7,3,4,2,1,5,6,{24}4,5,4,5,4,5,3,6,3,6,3,6,2,7,2,7,2,7,1-5[8:1]/8,,,,,,
{8}1b^3[12:1]/7b,7,1-5[8:1]/6,6,1^3[12:1]/7,7,1/8-4[8:1],8,8^6[12:1]/3,3,8/2,2,{24}1,2,3,7,6,5,2,3,4,8,7,6,{8}1^3[12:1],15,1-5[8:1]/6,6,1^3[12:1]/7,7,1/8-4[8:1],8,8^6[12:1]/2,2,8/1,1,{24}2,3,4,1,2,3,7,6,5,8,7,6,
{8}1^4[8:1],1,1/6,6,{24}7,6,5,1,2,3,8,7,6,2,3,4,{8}8^5[8:1],8,8/3,3,{24}2,3,4,8,7,6,1,2,3,7,6,5,
{24}3,2,1,8,7,6,4,3,2,1,8,7,5,4,3,2,1,8,6,5,4,3,2,1,{16}4,5,4,5,3,6,3,6,2,7,2,7,1,8,1,8,
{8}8^6[12:1]/1,1,8-4[8:1]/3,3,8^6[12:1]/2,2,8/1-5[8:1],1,1^3[12:1]/6,6,1/7,7,{24}8,7,6,2,3,4,7,6,5,1,2,3,{8}8^6[12:1],84,8-4[8:1]/3,3,8^6[12:1]/2,2,8/1-5[8:1],1,1^3[12:1]/7,7,1/8,8,{24}7,6,5,8,7,6,2,3,4,1,2,3,
{8}8^5[8:1],8,8/3,3,{24}2,3,4,8,7,6,1,2,3,7,6,5,{8}1^4[8:1],1,1/6,6,{24}7,6,5,1,2,3,8,7,6,2,3,4,
{24}6,7,8,1,2,3,5,6,7,8,1,2,4,5,6,7,8,1,3,4,5,6,7,8,{32}16,5,4,3,2,1,8,7,62,5,4,3,2,1,8,7,36,5,4,3,2,1,8,7,63,5,4,3,2,1,8,7,
{8}26,43,18,75,{16}4,8,3,7,2,6,1,5,{4}4<8[8:1]/8,{24}4/8,1,2,3,4,5,1,5,1,5,1,5,1-5[16:1],5,1,5,1,5bp3[16:61],1bp7[4:15],
