&title=チョコレイト・ディスコ
&artist=Perfume
&first=0.645
&des_5=Ragna
&lv_5=12+
&des=Ragna
&wholebpm=128
&demo_seek=83
&demo_len=16.6
&inote_5=(128){2}
4h[2:1],5h[2:1],
6h[2:1],5h[2:1],
4h[2:1],3h[2:1],
4h[2:1],5-1[8:1],{8}
4-2[8:1],4,7-4[8:1],7,1,2,35,,
6-1[8:1],6,5-3[8:1],5,8,7,62,,
3-8[8:1],3,7-4[8:1],7,1,2,35,,
6-1[8:1],6,4-1[8:1],4,8,7,26,,
4-8[8:1],4,7-4[8:1],7,1,2,35,,
7-4[8:1],7,1-5[8:1],1,6,7,84,,
2^7[8:1],2,5-8[8:1],5,1,2,37,,
45,,,,,,18,27,
3h[4:1]/6,,4,25,1/6h[16:3],{16},5,{8}6,74,
83,2,15,6,73,,18,27,
6h[4:1]/3,,5,74,8/3h[16:3],{16},4,{8}3,25,
16,7,84,3,26,,45,36,
2h[4:1]/7,,1,38,4/7h[16:3],{16},8,{8}7,16,
25,3,84,7,26,,45,36,
7h[4:1]/2,,8,16,25,,36,27,
1-3[8:1]/8-6[8:1],,1-5[8:1]/8-4[8:1],,18,,36,,
2h[2:1],4,5,6,7h[16:3],{16},5h[16:3],{8},4h[8:3],
3,2,1qq4[16:5],{16}5,5,{8},,,,
7h[2:1],5,4,3,2h[16:3],{16},4h[16:3],{8},5h[8:3],
6,7,8pp5[16:5],{16}4,4,{8},,,,
3h[2:1],1,8,7,6h[16:3],{16},1h[16:3],{8},8h[8:3],
2,3,4q5[16:5],{16}7,7,{8},,,,
6h[2:1],8,1,2,3h[16:3],{16},8h[16:3],{8},1,
27,65,34,{16}15,15,{8},,,,
73,2,15,2,37,8,15,8,
3/7h[16:7],2,1,{16}8V24[32:5]*V64[32:5],8,{8},,,,
26,7,84,3,26,1,84,5,
6/2h[16:7],7,8,{16}1V35[32:5]*V75[32:5],1,{8},,,,
64,7,18,2,53,2,18,7,
6h[16:7]/4,3,2,{16}1p4[32:5]*q6[32:5],1,{8},,,,
35,2,18,7,64,7,18,2,
34,65,78,{16}26,26,{8},,,3^8[8:1],
3h[16:3],,,6^3[8:1],6h[16:3],,,1^6[8:1],
1h[16:3],,,4h[8:1],{16}6,5,{8}6,,8-4[8:1],
8h[16:3],,,6-2[8:1],6h[16:3],,,4-8[8:1],
4h[16:3],,,2h[8:1],{16}8,1,{8}8,,7-2[8:1]/8,
8/7h[16:3],,,3-6[8:1]/6,6/3h[16:3],,,5-2[8:1]/4,
4/5h[16:3],,,81,{16}81,72,{8}63,,4,
4^7[8:1],,4^1[8:1],,4-8[8:1],,4,,
1^4[8:1]*^6[8:1],,1w5[8:1],,1,,37,,
1-5[8:1],1,7v8[8:1],7,4,3,72,,
5v4[8:1],5,1-5[8:1],1,6,7,84,,
2-6[8:1],2,7v1[8:1],7,4,3,28,,
6v8[8:1],6,5-1[8:1],5,7,6,52,,
4-8[8:1],4,7v4[8:1],7,1,2,35,,
6v1[8:1],6,4-8[8:1],4,7,6,15,,
2-6[8:1],2,7-3[8:1],7,8,1,24,,
3s7[4:1]/6z2[4:1],,,,,,
1>8[16:7],2,3,,1>8[16:7]*>7[8:3]*>6[16:5]*>5[4:1]*^4[16:3],2,3,,
1>8[16:7],2,3,,1>8[16:7]*>7[8:3]*>6[16:5]*>5[4:1]*^4[16:3],2,3,,
1>8[16:7],2,3,,1>8[16:7]*>7[8:3]*>6[16:5]*>5[4:1]*^4[16:3],2,3,,
1>8[16:7],2,3,,1>8[16:7]*>7[8:3]*>6[16:5]*>5[4:1]*^4[16:3],2,3,,
1>8[16:7],2,3,,1>8[16:7]*>7[8:3]*>6[16:5]*>5[4:1]*^4[16:3],2,3,,
1>8[16:7],2,3,,1>8[16:7]*>7[8:3]*>6[16:5]*>5[4:1]*^4[16:3],2,3,,
1>8[16:7],2,3,,1>8[16:7]*>7[8:3]*>6[16:5]*>5[4:1]*^4[16:3],2,3,,
1-3[8:1]*-4[8:1],1,1-6[8:1]*-7[8:1],,1w5[8:1],,1,,
37,28,1s5[32:9]*z5[32:9],,,,,,
37,,12,3,45,6,78,,
6-1[8:1],5,4h[4:1],,8-4[8:1],7,6h[4:1],,
3,,87,6,45,3,21,,
4^1[8:1],5,6h[4:1],,8-4[8:1],1,2h[4:1],,
5,,65,7,18,2,34,,
2-6[8:1],1,8h[4:1],,5-8[8:1],4,3h[4:1],,
1,,34,2,18,7,65,,
1-4[8:1]/8-5[8:1],27,1b/8b,,,,,,
E
