&title=ディメンション
&artist=雄之助
&first=-1.009999
&des=
&des_5=Bulir
&lv_5=13+
&inote_1=
&inote_5=(170){4},{8},,,,,,,,,,,1,
,1,
,1,,2,,2,,2,
3,4,5,E8,B7,B6,E6,4,
,5,,5,,6,,6,
7,8p4[4:1],E4,B3,B2,E2,,1,
,8,,2,3,4/5,,6,
7,8<5[8:1],1,1,1>4[8:1],1,,5,
,5/4,,6/3,,2b-5[8:1]/7b-4[8:1],,2b/7b,
,4x/3x-8[8:1],2,3/4,5,6/1-4[8:1],,1/6,
7,8h[8:1]/3h[8:1],,7-4[8:1],2,1-5[8:1],1,1,
8,7/4,3/6-1[8:1],4,6/5,4,3,8-4[8:1],
2,1/8,2,3,4,5/6,{16}4,5,3,4,
{8}2h[2:1],5,5-8[8:1],4,5,3xh[8:1],,6xh[8:1]/5xh[16:1],
,2xh[8:1]/4xh[16:1],,7xh[8:1]/5xh[16:1],,2/5,{16}3,4,{8}3,
4/3,3/4,2/5,1q5[8:1],6,1,,7p3[8:1],
4,7,,{16}3,4,{8}3,3,{16}5,4,{8}5,
{16}5,3,{8}5,{16}6,5,6,5,{4}6h[2:1],{8}4,4,
B3/E4,E2/B2,E8,B3,B5,E2,3/4,3/4,
2/5,5/2,{16}3,4,3,4,{8}3h[8:3],E8,E7,E6,
{16}5,4,{8}6h[8:1],{16}3,4,{8}2h[8:1],{16}6,5,{8}7,4b/6x,8b/2x,
4b/5x,7b/1x,{16}7<4[8:1],8,7,8,{4}7,{8}1,2,
{16}3,4,2,4,{8}3h[8:3],5,5,6,6/4,B8/B7,
B3/B4,C,{16}1,8,1,8,{8}1,1,2,2,
7,7,{4}1p6[2:1]*q4[2:1],,,,3b/7b-4[8:1],
{8}7/2,1-5[8:1],,1/8,
6,8-4[8:1]/7-5[8:1],,8/7-3[8:1],,7/8,1>4[8:1],8,
1,7<4[8:1],8,7,2-5[8:1],1,2,7-4[8:1],
8,7>2-8-6[4:3],{4}2,3,4,
5xh[32:7],{32}4x,3x,2x,1x,{8}8xq4[8:1],7,7,6-1[8:1],5,
5,4-8[8:1],,4/5-1[8:1],6,5/4,3,2/8,
2/8,1>4[4:1],,4<7[4:1],,7>2[4:1],,2>5[4:1],
,5,,6,,7,{32}8,1,2,3,4,5,6,7,
8,1,2,3,4,5,6,7,{4}8x-4[8:1]/2x-5[8:1],{8}2b/8b,{4},{8}2-5[8:1],
1,7-3[8:1],8,4>7[8:3],,5,5,6,
6,6-1[8:1],,6/2-5[8:1],,2/8-4[8:1],,8/2-6[8:1],
,2>5-3-1[8:5],{4}E8/B7,C,B6/E6,
7h[4:1],{8}1-5[8:1],2,1/7-4[8:1],6,7/3-8[8:1],2,
6-1[8:1],7,{4}6/2xh[4:1],{8},7-4[8:1]/3-8[8:1],,3/7,
,1>4[8:1]/5<8[8:1],,1/5,,5-2[8:1]/1-6[8:1],,1/5,
,1-4[8:1]/5-8[8:1],,1/5,,3>8[8:1]/7<4[8:1],,3/7,
,1,{4}5h[4:1],{8}2,6h[2:1],,1-4[8:1],
8,1,,2-5[8:1],1,2,{16}B8,B7,{8}E7,
6x/5x,5x/6x,3/4h[8:1],1,3/4h[8:1],1-5[8:1],,1/8,
,7-3[8:1],,8/7,,1/2,,{16}1,2,
{8}1,1,2,2,8,8,2,2,
7,7,3,3h[8:1],,{16}6,4,{8}6,7-4[8:1],
2-5[8:1],7,2,6,6/3,2xh[4:1]/7xh[8:1],,,,8xh[4:1]/1xh[8:1],
,{16}2,3,{8}4,5,5,4,
{16}4,5,{8}6,{4}6>3[8:3],,,,2<7[8:3],
{2},{4}B7/B6/B2/B3,
{8}2/7<4[8:1],1,7-3[8:1],2,1>4[8:1],8,
1,7-4[8:1],8,7,2-5[8:1],1,2,6,
6,7,{4}8/1,{8}1-5[8:1],7-4[8:1],1,7,
2,8,{32}2x,3x,4x,5x,{8},7h[8:1],5h[8:1],6h[8:1],4h[8:1],
5h[8:1],3h[8:1],{4}4-6-8[8:1],3,5-3-1[8:1],
{8}6,B7/B6,,B2/B3,{4},{8}E3,E5,
{4}E7,{8}4/5-8[8:1],6,5/4,{4},{8}4/3-8[8:1],
2,3/4,,5/4,6,4/5,3,4-1[8:1]/5-8[8:1],
6/3,5/4,{4},8/1,{8}2-4[8:1]/7-5[8:1],1/8,
2/7,{4},{8}3h[8:3]/6-1[8:1],5,6,,{16}4,5,
{8}4,8-6-4[8:1],,,,1-3-5[8:1],,E8,
,E6,,E2,,E4,,C,
,6,6,4,4,5,5,3,
3,4/5,{16}3,4,{8}3,3,5,{16}5,4,{8}5,
{16}3,4,{8}3,{4}3h[32:247],{32},,,,,,,,,,,,,,,B8/E8,
{4},,,{16},,,{32},E6/B5,
{4},,,{16},,,{32},E7/B7,
{4},,,{16},,,{32},C,
{4},,,{16},,,{32},B1/B8,
{4},,,{16},,,{32},B5/B4,
{4},,,{16},,,{32},B2/B3,
{4},,,{16},,,{32},C,
{4},,,{16},,,{32},3/5<8[8:5],
,,,,,,,3,,,,,,,,3,,,,,,,,3,,,,,,,,4/1-5[8:5],
{16},,,4,{32},,,,,,,4,,,,,,,,4,,,,,,,,6/4>1[8:5],
,,,,,,,6,,,,,,,,6,,,,,,,,6,,,,,,,,1/6h[1:1],
,,,,,,,2,,,,,,,,3,,,,,,,,4,,,,,,,,5,
,,,,,,,4,,,,4,,,,5,,,,5,,,,3,,,,3,,,,6<1[8:1],
,,,6,,,,,,,,2,,,,,,,,2,,,,,,,,3,,,,3/4,
,,,,,,,4/5,,,,,,,,5/4,,,,,,,,5/4,,,,,,,,B6/B3,
,,,5/4,,,,,,,,3/6,,,,,,,,2/7,,1,,1,,8,,8,,,,1bx>4b[8:1]/8bx<5b[8:1],
,,,,,,,1/8,,D7f/D3f,,,,,,,,,,8/1-5[8:1],,,,2,,,,1/7<4[32:5],,,,8,
,,,1/7>2[8:1],,,,2,,,,3/7,,,,4,,,,4/8,,,,3/7,,,,2/6,,,,1v6[8:1],
,,,2,,,,7-4[8:1],,,,8,,,,2-6[8:1],,,,3,,,,8<5-7-1[1:1],,,,8,,,,1bx,
,,,1,,,,2b,,,,2,,,,3b,,,,3,,,,4b,,,,4,,,,5,
4,3,2,1q5[8:1],,,,7,,,,1/8,,,,7p3[8:1],,,,6,,,,8/7,,,,1,,,,1-5[8:1]/8-6[8:1],
,,,2,,,,8/1,,,,,,,,1-3[8:1]/8qq4[8:9],,,,7,,,,1/8,,,,,,,,B3/E4,
,,,,,,,3,,,,3,,,,3,,,,2,,,,2,,,,2,,,,3,
,5,,3,,5,,3,,,,3,,4,,3,,,,5,,4,,6,,3,,5pp5[32:5]*qq4[32:5],,,,,,,,,,,,,,,,3x/6x,
,,,5-1[8:1],,,,3,,,,5-7[8:1],,,,3,,,,5/2-4[8:1],
,,,1,,,,2-8[8:1],,,,5,,6,,2/7-4[8:1],{8},{32}3,{16},{32}7-1[8:1],,,,2,,,,7/3-5[8:1],
,,,2,,,,7/3-8[8:1],,,,6,,,,6/3,,,,5,,,,5/1,,,,1/5,,,,6/2-5[8:1],
,,,1,,,,2/7-4[8:1],,,,8,,,,7/1-5[8:1],,,,2,,,,1/8-4[8:1],,,,7,,,,8/5x,
4x,3x,2x,1xh[8:1],,,,8-6-4[8:1],,,,8,,,,8,,,,1-3-5[8:1],,,,1,,,,8,,7,,6,
,,,,,,,2/7,,,,1,,8,,1,,8,,1,,,,7-4[8:1],,,,7,,,,2-5[8:1],
,,,2,,,,8-4[8:1],,,,8,,,,3-6[8:1],,,,3,,,,7,,,,7,,,,1/8,
,,,1,,8,,1,,,,8,,,,2,,,,7,,,,1,,,,8,,,,2,
,,,2,,,,2-5[8:1],,,,8,,,,2/1,,,,8-4[8:1],,,,7,,,,1-5[8:1]/8-6[8:1],,,,,,,,1/8,
,,,,,,,3/8,,,,1-6[8:1],,,,2-5[8:1],,,,1,,,,2,,,,,,,,7v4[8:1],
,8,,6,,8,,7,,,,1-5[8:1],,,,2,,,,8/1,,,,7v4[8:1],,8,,6,
,8,,7,,,,8,,,,8,,,,3,,4,,3,,,,3/4,,,,3/4,,,,5/2,
,,,2>5[8:1],,,,2,,,,2,,,,7-3[8:1],,,,7,,,,7<4-6-8[2:1],,,,1,,,,1,
,,,2,,,,2,,,,2,,,,3x,,2x,,1x,,,,7<4[8:1],,,,7,,,,7/2,
,,,,,,,2-5[8:1],,,,1,,,,,,,,8,,,,7-4[8:1],{16},8,{32},,,1h[8:1],
,,,,,,,,,,,3xh[32:3]/5xh[32:3],,,,,,4,,4,,6,,6,,2,,2,,8,,8,
,C,
E
