&title=吾輩よ猫であれ (Kawaii×Future×Hard Mix)
&artist=Lyrical Lily
&first=1.39
&des=stardustblast
&lv_5=14+
&inote_5=(165)
{4}7-3[1:1]
,,,,,
{4}1-5[8:1],1b-4[8:1]*-6[8:1]/5,1b,
{8}3/5,2h[4:1],,7,1,5,,
{8}6/4,3,7h[4:1],,2,8,4h[8:3],,,
{8}1,7h[4:1],,2,8,4,,4h[2:1]/3,1,,,3,2,
{8}1b/8b,2b/7b,,
{8}2/8,3h[4:1],,6,4,8,,
{8}7/1,2,6h[4:1],,3,5,1,,,
{12}2/7,1,1,2/5,4,4,6/3,2,2,6/1,{48}7h[12:8],8h[48:19],,,,,,,
{8},,,8-4[8:1],1-5[8:1],8b,1b-6[8:1],,
{8}1/3,4h[8:1],{16}5,3,{8}4,2/6,{16}1,7,{8}8,
{8}1h[4:1]/5,3,7,{16}2,8,{8}1,7,{16}4,6,{8}5-1[8:1],
{8}3/7,1/5,3,{16}2,1,{8}3,
{8}2/6,{16}7,8,{8}6,1h[8:1]/5,7h[8:3],{32}1,2,3,4,5,6,,8,
{8}1-5[8:1],2-6[8:1],1b,2b,{16}1,8,{8}7b,4h[8:1],{16}6,5,
{8}7,4/6,{16}3,4,{8}2,5h[4:1]/1,7,3,
{16}6,5,8,,2/7,,3,4,1-5[8:1],,6,2,
{8}1,4,3/6,2/7,{16}8,1,8,1,8,1,8-4[4:1],1,{4}8h[4:3],,{8},2b,
{16}1b>3[8:1],7,{8}2,{16}1/8,7,6,,{16}4h[8:1]/5,6,7,,
{16}1h[8:1],,8,7,{8}6h[4:1],4,1-3[8:1],7,1-4[8:1],6,1-5[8:1]/7h[8:1],,
{8}1-3[8:1],,1/8,6,{16}5h[8:1]/4,3,2,,8h[8:1],,1,2,{8}3h[4:1],5,7,
{16}2,5,3,6,4>1[8:1],7,3,,{24}8/4,7,6,{8}5-7[8:1],,
{8}5/1,2,{16}1h[8:1]/8,7,6,,4h[8:1],,5,6,{8}7h[4:1],1,3,
{16}6,1,7,2,8,3,7,,2/6,,{12}1/8<5[8:1],1/8,1/8,{24}1b/8b,2,3,{8}4,
{16}1,5,3,7,5,,6,2,8,,{8}3/6,2/7,{16}1,8,1,8,1,8h[16:5],
{8}1-5[8:1],,1,,
{16}4b/6,,7,,6h[8:1]/5,,5,7,5<8[8:1],7,4h[8:1],,{24}5,3,2,1,,,
{16}5b/3,,2,,3h[8:1]/4,,4,2,4>1[8:1],2,5h[8:1],,{24}4,6,7,8,,,
{16}4b/6,,7,,6h[8:1]/5,,5,7,5<8[8:1],7,4h[8:1],,{24}5,3,2,1,,,
{16}2b/6,,4,8,,3,7,,2,6,,,5/1,,3/7,,
{16}1b/7,,6,,7h[8:1]/8,,8,6,8<5[8:1],6,1h[8:1],,{24}8,2,3,4,,,
{16}8b/2,,3,,2h[8:1]/1,,1,3,1>4[8:1],3,8h[8:1],,{24}1-5[8:1],7,6,5,,,
{8}1b/8h[4:1],,4,2h[4:1]/6b,,4-8[8:1],,4b/6h[4:1],,1,
{16}2,4,2,,7,5,7,5,8-4[8:1],6,8,6,
{8}8b,3,2/5,{16}7,8,,8,{8}1,{32}1-5[8:1],2,3,4,5,6,7,8,
{8}1b,4,7/4,{16}2,1,,1,{8}8,{32}8-4[8:1],7,6,5,4,3,2,1,
{8}8b,5,2/5,{16}7,8,,8,{8}1,{32}1-5[8:1],2,3,4,5,6,7,8,
{8}1b,4,7/4,{16}2,1,,1,{8}8,{12}8<5[8:1]/1,1/8,1/8,{24}1b/8b,2,3,{8}4,
{16}8,2,7,1,5<8[8:1],4,8,,{24}4b/5b,3,2,{8}1,{24}1b/5b,2/6,3/7,4/8,,,
{16}4,6,3,5,1>4[8:1],8,4,,{24}8b/1b,7,6,{8}5,
{16}1b/5b,2,3,4,5,6,7,8,{24}1b/5b,2h,3h,4h,5h,6h,7h,8h,1h,2h,3h,4h,
{4}5bp7[4:1]/1bp3[4:1],,{8},4/8,2b/6b,,
{16}4b/7,,8h[8:1],,2,1,4,7,3,8,5,,3/8,,7,,
{16}5b/2,,1h[8:1],,7,8,5,2,6,1,4,,6/1,,2,,
{16}4b/7,,8h[8:1],,2,1,4,7,3,8,5,,3/8,,7,,
{8}6/1pp2[4:1],6,6/1qq6[8:3],{16}7,8,{8}1,,3,3,
{16}5b/2,,1h[8:1],,7,8,5,2,6,1,4,,6/1,,2,,
{16}4b/7,,8h[8:1],,2,1,4,7,3,8,5,,3/8-4[8:1],,{24}1,8,1,
{8}8b,,2,3b/7h[4:1],,1-5[8:1],,1b/3h[2:1],,4,5,6,1s5[8:1]/8z4[8:1],,1b/8b,,
{8}2/7h[4:1],,{32}1,8,7,6,5,4,{16}3b/7b,,,4/6,,7,1,7,,
{8}7b/2h[4:1],,{32}8,1,2,3,4,5,{16}6b/2b,,,5/3,,4/6,,2/8,,
{8}2b/7h[4:1],,{32}1,8,7,6,5,4,{16}3b/7b,,,4/6,,7,1,7,,
{8}7b/2h[4:1],,{32}8,1,2,3,4,5,{16}6b/2b,,,5/3,,4/6,,2/8,,
{8}2b/7h[4:1],,{32}8,1,2,3,4,5,{16}6b/8b,,,4/6,,2,8,2,,
{8}7b/2h[4:1],,{32}1,8,7,6,5,4,{16}3b/1b,,,2/4,,1/7,,
{8}2b/6,8h[16:3]/4b,{16},2,1,3,8,4,7,,5h[16:1],6,,3h[16:1],8,,
{8}2b/7h[8:3],{32}1,2,3,4,5q5[8:3],6,,8,
{8}1,4,3,2,1,2h[4:3]/6,5,,4,,7,6,
{8}8h[4:3]/7,,6,,5,,4h[4:1],,{16}3,5,
{8}2h[8:7],1,,8,,7,,6h[8:3],,,3,
{16}7,2,{12}8-4[8:1],1/8,1/8,1/8,,,
{16}3/5,,2,8,1,,4/7,,1,8,3,6,2,7,4,5,
{4}1h[4:3],,8-4[8:1],8b,
{16}1-5[16:1]/2b,,,8-4[16:1]/1b,,,7/8b,,,1/8,,,3/4,,1/6,,
{16}8-4[16:1]/7b,,,1/8b,,,2/1b,,3,4,1,6,{12}8-3[16:1],7/8,7/8,
{16}8b-4[16:1]/7,,,1-5[16:1]/8b,,,2/1b,,,8/1,,,6/5,,8/3,,
{16}1-5[16:1]/2b,,,8/1b,,,7/8b,,6,5,8,3,{32}1-6[16:1],2,3,4,5,6,7,8,
{16}1-5[16:1]/2b,,,8-4[16:1]/1b,,,7/8b,,,1/8,,,3/4,,1/6,,
{16}8-4[16:1]/7b,,,1/8b,,,2/1b,,3,4,1,6,{12}8-3[16:1],7/8,7/8,
{8}8b/7h[32:14],,{32}1,2,3,4,5,6,,,{16},7,8b,,8,1b,,3b/7b,,
{8},{16}2,5,4,7,3,8,1,6,{4}3h[16:5],{16},
{8}4,8,{24}2,1,2,1,2,1,3,,2,,1,,7,8,7,8,7,8,
{16}6,1,5,2,8h[8:1],,1,,
{16}7,8,6,1,5,2,4,3,{12}5/2,6/1,7/8,
{24}7,8,7,8,7,8,{8}6h[8:1],1,
{24}2,1,2,1,2,1,{8}2,6,1/5,2,
{24}3,4,3,4,3,4,{4}3-8[8:1],{8}3b/4,7,
{16}6-2[8:1],4,7,,6b/5,,4,4b,,8,8b,,2b/6b,,8,,
{16}1-5[8:1],8,1,8,1b,,7,7b,,3,3b,5,5b,,2,8,1,,
{16}3/7,,1,5,1,5w1[2:1],1,5,1,5,
{4},,{16},,,3/7,{8},,7h[2:1]/5-1[8:1],{8},,,
{16}2,7,2,7,2,7,2,7,{24}1,8,1,8,1,8,1b,8b,1b,8b,1b,8b,{8}1b,3/6,2/7,1b/8b,
