&title=Eternal Ending
&artist=Kobaryo
&first=3.69
&des=Drelxyse
&lv_5=14
&inote_5=(200)
{8}4hx[4:1],,5,6h[4:1],,3,4h[4:1],,
{8}6,5h[4:1],,4,3h[4:1],,6,,
{8}5h[4:1],,4,3h[4:1],,6,5h[4:1],,
{8}3,4h[4:1],,5,6h[4:1],,3,,
{8}4x/E7,,4,3,,5,6,,
{8}3,4,,6,4,5,3,,
{8}5x/E3,,6,7,,2,3,,
{8}4,5,,7,1,8,2,,
{4}8bx^5[2:1],1,2,3,4bx^1[2:1],5,6,7,
{4}8bxv3-5[2:1],1,7,2,4bxv7-1[2:1],5,3,6,
{8}7,7-5[8:1],7,3,3-1[8:1],3,6,6-4[8:1],6,2,2-8[8:1],2,5,7,1x,3,
{8}5^7[8:1],6,4-1[8:1],4,8-5[8:1],8,3-1[8:1],2,
{8}6-8[8:1],6,5,5-1[8:1],1xw5[8:1],,,,
{8}3x^1[8:1],4,5,6^4[8:1],7,8,1-7[8:1],2,3,4-2[8:1],5,6,7,8,
{16}1b/B2,E3,A3,,
{8}6x^8[8:1],5,4,3^5[8:1],2,1,8-2[8:1],7,6,5-7[8:1],4,3,2,1,
{16}8b/B7,E7,A6,,
{8}2x^4[8:1],1,8,7^1[8:1],6,5,4-6[8:1],3,2,1-3[8:1],8,7,6,5,
{16}4bx/B3,E3,A2/5x,,
{8}7bx^4b[8:1],8,1,2b^7[8:1],3,4,5b-2[8:1],6,7,8b-6[8:1],1,2,3,4,5b,,
{8}2-4[8:1],1,2,7-5[8:1],8,7,1-3[8:1],
{16}8x,8,1,,7-5[8:1],,8,,7,,3,2,1,8,7/4b,,,,{8}3-1[8:1],
{16}7,7,3,,
{8}6-8[8:1],
{16}2x,2,6,,4^6[8:1],3,2,,4,,8,1,4,,5,,2b,3,7,6,4b,,,,
{16}6,6,5,5,{32}6x,7x,8x,1x,,,,,
{16}3,3,4,4,{32}3x,2x,1x,8x,,,,,
{16}7,7,8,8,{32}7x,6x,5x,4x,,,,,
{16}1w5[8:1],2/8,3/7,,A1f/E2/E1,,,,
{16}7,8,7,,16,,3,4,3,,25,,8,1,8,,
{8}72,3,8-6^5[8:1],5-1^2[8:1],8x/2x-4[8:1]*-6[8:1],,,,
{4}5hx[1:1],E3,E2,E1,E8,E7/E5,6x/4h[4:1],{16}A7,E8,,,
{4}2hx[1:1],E5,E6,E7,E8,E1/E3,2x/4h[4:1],{16}B1,B8,,,
{4}7x<4[2:1],8,1,2,3-5[8:1],6-8[8:1],2-4[8:1],E8/B7/E7,
{4}1<6[2:1],2,3,4,5q1[2:1],4,{8}3,,2,2,
{4}1/2-4[8:1],8,7-5[8:1]/8,1,1/2-4[8:1],8,7-5[8:1]/8,1,
{4}4/3-1[8:1],5,6-8[8:1]/5,4,4/3-1[8:1],5,6-8[8:1]/5,4,
{4}2/1^6[8:1],13,5/4^1[8:1],46,7/8v5[8:1],8/1-6[8:1],1/2-4[8:1],2,
{4}6/5v8[8:1],35,2/1v4[8:1],71,6/5-1[8:1],4qq7[2:1],A4f,,
{8}8,8,8,6,6,6,4,4,4,2,2-6[8:1],2,{4}2V84[4:1],7,
{8}7,7,7,5,5,5,3,3,3,1,1-5[8:1],1,{4}1V73[4:1],{8}6,6x,
{8}7bx,6,52,3,48,7,61,2,34,56,5-7[8:1]/6,56,2-6-3[4:1],,,,
{8}7,5,3,18,2,4,6,78,1x/2x,34,5/6-4[8:1],78,2-5[8:1]/6,3,7,,
{8}4x/6,7,83,7,65,4,53,2,1-4[8:1],1,7-3[8:1],7,5w1[8:1],,5b,,
3x/7x,2,16,2,34,5,46,7,8-6[8:1],8,4-2[8:1],4,5w1[8:1],,5b,,
6-2[8:1],2,6,4-8[8:1],8,4,7-4[8:1],6,3-8[8:1],2,5^7b[8:1],,5-2-6[4:1],,3x,3x,
{8}1,1/7x,1,1/6x,2,2/5x,2,2/4x,3b,7b,3b,
{16}2b/6,15,48,,2/6b,37,4/8-4b[8:1],,,,
{1}8b-2-4-6-8-6-4-2-8[4:15]/Cf,,,,
{1}7hx[1:1],5hx[1:1],4hx[1:1],2bhx[1:1],
{4}E1,E8,E7,E6,5h[4:3]/E4,E3,E2,E1,73,84,15,26,78,5`4,12,4`5,
{8}8,8,7,7,6,6,5,5,4,4,3,3,2,2,1,1,
{16}8,2,8,2,7,3,7,3,6,4,6,4,5,5,5,5,
{4}5b<8[8:1]*>2[8:1],5bw1[8:1],5b,E7/Ch[32:1]f/E3,
{16}8-5[8:1],,5-8[8:1],,8,,1x,,1x-5[8:1],2,3-8[8:1],,1,,3,,4h[8:1],,2h[8:1],,6h[8:1],,2,3,4/6,,3,4,5b/7b,,1/6,,
{16}2v5[8:1],,5V31[4:1],,2,,1x-5b[8:1],,8x,7,6,,8x,7,6,5,4b,,3,4,,6,5,,
{24}7x,8,1,2,3,4,
{16}2b/5,,,,
{16}1-4[8:1],,4-1[8:1],,1,,8x,,8x-4[8:1],7,6-1[8:1],,8,,6,,5h[8:1],,7h[8:1],,3h[8:1],,7,6,5/3,,6,5,4b/2b,,8/3,,
{16}7v4[8:1],,4V68[4:1],,7,,8x-4b[8:1],,1x,2,3,,1x,2,3,4,5b,,7bx,5,,2bx,4,,
{24}2b,1,8,7,6,5,
{16}8b/4,,3x,,
{16}7-3[8:1],,2-5[8:1],,7,,2,,1bx,8,7,6,5/8bx,1,2,3,
{16}4x/5x-1[8:1],,1x-6[8:1],,,,2x,3x,4x,,3,4,5/7b,,8x/2x,,
{16}7bx,1,6,2,5,3h[16:3],,,4b,5,6,,8b/4b,37,26,,
{16}5,,1-3[8:1],6,,6,1x,,{16}C,B8,A8,,7x/3bx,62,51,,
{24}7bx,6,5,1x,2,3,8x,7,6,2x,3,4,1x,8,7,65,4,3,2x/8hx[4:1],,,,,,
{24}5bx,4,3,1x,8,7,4x,3,2,8x,7,6,1x/5x,2,3,4x/5x,6,7,8x/2x,,,,,,
{16}7,8,7,8,
{48}7x,E7,B6,B5,E5,3x,E3,B2,B1,
{16}E1,7x,6,5,4,2b/3b,,,,1b/8b,,6b,7/5,,3b,4/2,,
{24}8x,7x,8x,
{8}7x,2b-5[8:1]`6b-1-6b[1:3],2/6,
{2},,,,E5/B4,,B2/E3/Ch[1:1],,
{8}B1,B2,B3,B4,B5,B6,B7,B8,E1,E2,E3,E4,E5,E6,E7,E8,
{8}1bxs5b[8:1],,2,3bxs7b[8:1],,4,5bxs1b[8:1],,6,7bxs3b[8:1],,
{8}7>2[8:1]/7<4[8:1],,,,,
{32}1x,2x,3x,4x,5x,,,,8x/4x,7x/3x,6x/2x,5x/1x,4x/8x,,,,
{32}1x,2x,3x,5x,6x,7x,1x,2x,3x,5x,6x,7x,,,,,
{32}8x,7x,6x,5x,4x,,,,1x/5x,2x/6x,3x/7x,4x/8x,5x/1x,,,,
{32}8x,7x,6x,5x,4x,3x,2x,1x,
{4}C,
{32}5x,6x,7x,8x,1x,,,,4x/8x,3x/7x,2x/6x,1x/5x,8x/4x,,,,
{32}5x,6x,7x,1x,2x,3x,5x,6x,7x,1x,2x,3x,,,,,
{32}5x,6x,7x,8x,,,,,
{32}1x,2x,3x,4x,,,,,
{32}5x,6x,7x,8x,1x,2x,3x,4x,
{4}C,
{16}1,5,2,6,3,7,4,8,1-5[8:1],2,3,4,5,,,,
{16}8,4,7,3,6,2,5,1,8-4[8:1],7,6,5,4,,,,
{8}Cf,,,,,,,,
{32}1x/7h[8:1],2x,3x,4x,,,,,
{32}8x/2h[8:1],7x,6x,5x,,,,,
{32}1x/5x,2x/6x,3x/7x,4x/8x,,,,,
{32}4x/A4,3x/A3,2x/A2,1x/A1,8x/A8,7x/A7,6x/A6,5x/A5,Ch[32:1]f,
