&title=Melodiniq
&artist=onoken a.k.a. owl*tree
&first=0.36
&des=TraNsforM "∆stral"
&lv_5=14+
&lv_8=14+
&alias_8=Astral
&inote_5=
(193){6}7h[3:1],
{12}E6,E5,E4,E3,{6}6h[3:1],{12}D5,D4,D3,D2,
{6}5h[2:1],{12}4,3,2,1,8,7,6,5,4,3,
{6}2h[3:1],{12}E1,E8,E7,E6,{6}1h[3:1],{12}D8,D7,D6,D5,
{6}8h[2:1],{12}7,6,5,4,3,2,1,8,7,6,
{6}5h[6:1],{12}3,4,2,4,{6}1h[6:1],{12}7,8,6,1,
5,5,3,4,2,8,1,7,5,6,4,5,
{6}B1h[4:7],{12}A4,A5,A6,A7,{6}A8h[4:5],{12}A5,A4,A3,A2,
{6}A1h[4:3],{12}E4,E5,E6,E7,{2}B8h[4:1],
{24}8bx/1bx/E1f,2x/7x-2q6-1>4[4:11],6x/3x-6q2-5<8b[4:11],5x/4x,{1},,,{4},,{16},,,{48},{8}2xpp3>8[2:3]/6xpp7<4[2:3],
,,,,,,,,,,,,,,,7xqq2[2:3]/3xqq6[2:3],
,,,,,,,,,,,,,,,,{4}3/5h[4:1],
{8}4,5,{4}6/C,{8}5,5/4h[8:1],
,3,4/3h[8:1],5,6/C,5,4,3/4h[4:1],
,2,3,4,5/C,6,7,5/6h[4:1],
{16},,B4,B3,{8}E3,5,{16}3h[8:1]/B5,B6,{8}E7,4,4,
{4}6/5h[4:1],{8}6,5,4/C,3,4,6/C,
5,4,3/C,4,5,4/C,5,6pp7b[4:5]*-2[8:7],
{1},{4},,{24}E6,
E5,E4,E3,E2,E1,E8,E7,E6,E5,E4,E3,
{8}E2/Cf,{16}7,8,{8}7,{16}2,1,{8}2,{16}6,5,{8}6,{16}3,4,
3,2,1,8,7,6,5,4,8,1,2,3,4,5,6,7,
1,2,3,4,7,5,7,5,6,4,6,4,7,3,7,3,
8,1,2,3,4,5,6,7,2,1,8,7,6,5,4,3,
{8}8/2,{16}6,5,7,4,6,5,{8}8,{16}3,4,2,5,3,4,
{8}1,{16}7,5,6,4,5,3,4,2,5,1,6,2,7,3,
8,7,6,5,1,2,3,4,2,1,8,7,3,4,5,6,
4,3,2,1,5,6,7,8,6,5,4,3,2,1,8,7,
{4}5/6-2[8:1],{8}4-7[8:1],5,3<6[8:1],2,1-5[8:1],8,
{4}2-7[8:1],8w4[8:1],8,{16}1,2,3,4,
{4}6/5-1[8:1],{8}7-4[8:1],6,8<5[8:1],1,3-7[8:1],2,
{4}1w5[8:1],1,{8}8/2,6/1,{4}8-3[8:1]/4-7[8:1],
8b/4b,{8}1,2>5[8:1],{16},,8,7,{4}6-2[8:1],
{24}3x,2x,1x,8x-3[8:1],{16},,,{64},{192},{32}5x,6x,7x,8x,{4}1x-6[8:1]*-5[8:1],1>4[8:1],
1/7h[4:1],{8}E5,6/4,5/3,4/2h[8:1],C,3/6,
7/4,5/8h[8:1],C,7/3,5/1,Cf/B6/B2,{24},,,8x/4bx,1bx/5x,2x/6bx,
{1}3bx>4[4:11]*>7b[96:151]*>6[32:63]*>5b[48:113]/7x<8b[4:11]*<3[96:151]*<2b[32:63]*<1[48:113],
,,{4},,,{8},3,
3h[4:1],4,{4}5-7[8:1],{8}1,1-5[8:1],,8h[8:3],
,7,7,6,5,4,3,2h[8:3],
,4,{4}4-6[8:1],{8}8,8-4[8:1],,6z2b[8:5],
,,,,,,,5,
{2}5p4[2:1],{8}4>8[8:3],,,8<4[8:3],
,,,1,{4}1-7[8:1],{8}2,2-6[8:1],
,2-4[8:1],,5,{4}5V71[8:3],{8}1,1>4[4:1],
,4<7[4:1],,7,,8,{4}8p4[8:1],
{2}1p8[2:1],{8}8<4[8:3],,,4>8[8:3],
,,,5,{4}5-3[8:1],{8}6,6-2[8:1],
,4,{4}4-6[8:1],4-8[8:1],{8}7,7-5[8:1],
,1,{4}1-7[8:1],{8}4,2,8,6-8-2-4-6[8:23],
{1}Cf/4b<7-1-3-5b[1:3],
{8},,,,,,,,,,,,,,,,,,,7h[2:1],
,6,5,4,
3,3,2/4,2/4,1/5,1/5,8/6,8/6,
{16}7,1,6,2,5,3,4,2,5,3,6,4,{24}7-3b[4:3],{48}8,5,{24}1,2,3,4,
{1}5xh[4:3],
(196){8}8b/1b,{16}7,5,{8}6,{16}3,4,{8}5/2-5[8:1],2/5-2[8:1],,6,
{12}7,7,7,8,8,8,1,1,1,2h[4:1],{24},,,,{8}3,
4,3/5-8[8:1],6/4-1[8:1],5,4,,7h[8:1],
{16}5,6,4,5,3,5,3,5,{12}4,4,4,3xh[4:1]/5xh[4:1],{24},,,,,,,{8}2,
{16}1,8,1,8,{12}2,3,4,{48}7,,,8,,,{16}7,8,
{12}6,5,4,1h[4:1],{24},,,,E3,E4,E5,E6,E7,E8,A3,A4,A5,A6,A7,A8,
,,,{8}5,6/4-8[8:1],3/5-1[8:1],4,5,,2h[8:1],
{16}4,3,5,4,{8}7h[8:1],5h[8:1],{16}6,4,7,3,8,2,{8}1,
Cf,{16}3,4,{8}2,{16}6,5,{8}4/7-4[8:1],7/4-7[8:1],,3,
{12}2,2,2,8,8,8,{16}5,6,4,5,{4}3h[4:1],
{8}1,8/2,1/7-4[8:1],6/8-3[8:1],7,8,{16},,6,5,
7,8,6,1,5,2,4,3,{12}5,5,5,4xh[4:1]/6xh[4:1],{24},,,,,,,{8}7,
{16}8,1,8,1,{12}7,6,5,{48}2,,,1,,,{16}2,1,
{12}3,4,5,8h[4:1],,,3,2,1,8x/4x,1x/5x,2x/6x,
{384}7bp1b[2:3]*p4[2:3],3bp5[128:149],{1},{4},,,{16},,,{64},,,{96},
(206){32}E7,
B6,B5,E5,{24}E1/D1,E2/D2,E3/D3,E4/D4,E5/D5,E6/D6,D7/E7,{48},{16}C,1,8,1,8,{12}2,4,3,
7,5,{48}6,,,E5,,,{24}E4,{48},E3,,,E2,,,E1,,,{24}E6/D6,D7/E7,D8/E8,D1/E1,D2/E2,{32}B4,B3,B2,B1,B8,B7,B6,B5,
{4}8xh[8:1],{16}1,2,5/3,6,{4}7h[8:1],{16}2,3,4/6,7,
{24}5/8h[8:1],4,3,2,1,8,7,6,5,4,3,2,{2}5/1-5[8:1]*-6[8:1],
(209){24}E4/D4,E3/D3,E2/D2,E1/D1,E8/D8,E7/D7,E6/D6,E5/D5,E4/D4,D3/E3,{48},{16}C,1,8,1,8,{12}2,4,3,
7,5,6,{48}1,,,8,,,{16}1,8,{24}D2/E2,D3/E3,D4/E4,D5/E5,D6/E6,D7/E7,{32}B8,B1,B2,B3,B4,B5,B6,B7,
{4}1xh[8:1],{16}8,7,2/6,3,{4}4h[8:1],{16}7,6,5/1,2,
{24}4/3h[8:1],5,6,7,8,1,2,3,4,5,6,7,{2}4/8-4[8:1]*-3[8:1],
(212){32}E7f,B7,B8,E1,{24}E5/D5,E4/D4,E3/D3,E2/D2,E1/D1,E8/D8,D7/E7,{48},{16}C,4,5,4,5,{12}3,1,2,
6,8,{48}7,,,E1,,,{24}E2,{48},E3,,,E4,,,E5,,,{24}E8/D8,D7/E7,D6/E6,D5/E5,D4/E4,{32}B1,B2,B3,B4,B5,B6,B7,B8,
(215){4}5xh[8:1],{16}4,3,8/2,7,1/6,2,{8}3h[8:1],{16}5,6,1/7,2,
3/8,7,{8}6h[8:1],{16}4,3,2/6,7,{2}8h[8:1]/5-1[8:1]*-2[8:1],
(218){16}A7f,E7,E6,A5,A2,E2,E1,A8,E4,E5,E6,E7,E8,E1,E2,E3,
5,4,3,2,8,7,6,5,3,2,1,8,4,5,6,7,
(221)2,3,4,5,6/3x,7/4x,8/5x,1/6x,7,8,1,2,3/7x,8x/4,1x/5,2x/6,
3,4,5,6,7/4x,8/5x,1/6x,2/7x,{2}3/8x-4[8:1],
(224){8}6/5,{24}5/6h[8:1],4,3,{8}2,5/6,{24}4/6h[8:1],3,2,1,,,{4}E8/E6/E7f,
{8}4/3,{24}4/3h[8:1],5,6,{8}7,4/3,{24}5/3h[8:1],6,7,8,,,{4}E2/E4/E3f,
(227)5b/4b,{8}5/E7,5,4/E3,4,6/A7/B7,6,
3/B2/A2,3,7/A8/B8,7,2/A1/B1,2,8/C,8,
(230){16}1,5,1,5,8,4,8,4,7,3,7,3,7,3,7,3,
{24}8,1,2,3,4,5,1,8,7,6,5,4,{32}2,3,4,5,6,7,8z4b[8:13],1,2/7,6,5,4,3,2,1s5[8:13],8,
{1}2xh[1:1]/7xh[1:1],
{4},,,,(236)7b/3b,
{8}5h[8:1]/4h[8:1],,3/4,1,8/7,6,
6/5,7,8/1,2,3/4,3,6/5-1[8:1],4,
,,{4}2h[8:1]/8h[8:1],{8}4/3,5,4/6,2/7,
,1-5[8:1],8-6[8:1],1-3[8:1],8-4[8:1],1,8,1,
{4}7b/2b,{8}4/5,6/5,4/2,1,3/5,2,
4/6,7,5/6,8,4/3,2,1/8,6/4,
{4}5/2,{8}7-4[8:1],3-8[8:1],7-2[8:1],3-6[8:1],7,3bq5<2b[4:3],
,,,Cf,,,,,{4}8xV64[4:1],
B6h[4:1],{24},B7,B8,B1,B2,B3,{4}B4h[4:1]/5x-7[8:1],
5-2[8:1],{8}5/C,B8,{2}8xw4[8:1],
{8}A1/B1,A7/B7,B3/A3,B5/A5,2x-6[8:1],6-2[8:1],,8<5[8:1],
,8>3[8:1],,8,{24}B3,B4,B5,B6,B7,B8h[24:7],D2,D3,D4,D5,D6,D7,
,,,,,,{4}2b/6b,8h[8:1]/1h[8:1],{8}8/7,6,
4/5,2,3/4,7,4/6,2,1/8-4[8:1],7,
,,{4}3h[8:1]/5h[8:1],{8}1,2/6,8,3/7,
{4}C,{16}6,5,6,5,7,4,8,3,1,2,1,2,
(240){4}8x-5[8:1]*^1-4[8:1]b,{16}8b/1b,Cf,{8},,,{12}4,3,2,
8,7,6,1,2,3,7,6,5,2,3,4,
{8}8,8,3/7h[16:1],2/6h[16:1],1,1,5/2h[16:1],6/3h[16:1],
7,7,4/6h[16:1],3/5h[16:1],2-5[8:1],2,{12}5,6,7,
{8}3h[8:1],1h[8:1],5h[8:1],7h[8:1],{12}4,3,2,6h[8:1],{24},{8}8h[8:1],
4h[8:1],2h[8:1],7,7,3/6h[16:1],2/5h[16:1],1,1,
{12}6b/2x,3,4,{48}5/8x,,,E1,{24}6,B1f,{48}7,B2,,,{12}8,1,2,{48}3/6x,,,E7,{24}4,B7f,{48}5,B8,,,{12}6,
7,8,{48}1/4x,,,E5,{24}2,B5f,{48}3,B6,,,{12}4,5,6,{48}7/2x,,,E3,{24}8,B3f,{48}1,B4,,,{4}2bx,
{8}7,7h[8:1],,4h[8:1]/3h[8:1],,5h[8:1]/6h[8:1],
,3/4h[8:1],2,6/5h[8:1],{4}7-4[8:1],{12}4,3,2,
{8}1x-5[8:1],1/6,,7x-2[8:1],{4}7/4,{8}3x-6-4-8b[8:3],3/1-6[8:1],
,,,,{4}7w3[8:1],7,
{8}1b/5b-1[4:17],2,3,4,5,6,7,8,
{12}1,2,3,4,5,6,7,8,1,2,3,4,
{8}5,{24}5x,E6,E7,{8}A7f,5,{24}5x,E5,E4,A3f,,,{8}5,{24}5x,D6,D7,
{8}D8f,5,{24}5x,D5,D4,D3f,,,{4}5x-1b[8:1],5x,
7b/3b,{8}6,6h[4:1],{16}7-4[8:1],8,1,2,{8}3,3h[4:1],
{16}2-5[8:1],1,8,7,{8}6,6h[4:1],{16}4-7[8:1],3,2,1,{8}8,8h[4:1],
{16}5,4,3,2,1,8,7,6,3,5,3,5,4,6,4,6,
3,7,3,7,2,8,2,8,1,7,1,7,8-4b[8:1],8,8,8,
8b,Cf,{48},,,,,,{24}A5,E6,E7,A7,E8,E1,A1,E2,E3,A3,E4,E5,{36}A5h[1:1],,E6/D6,,E7/D7,,E8/D8,,E1/D1,
,E2/D2,,E3/D3,,E4/D4,,E5/D5,{288},,,,,,,,{32}B5h[2:1],D6,A6,D7,A7,D8,A8,D1,A1,D2,A2,D3,A3,D4,A4,D5,{4}Cf,
{16}4,6,3,7,2,8,1,5,3,6,2,7,1,8,4,6,
{32}B4,B3,B2,B1,B8,B7,B6,B5,{28}D4/E4,E3/D3,E2/D2,E1/D1,E8/D8,E7/D7,E6/D6,4bx,3bx,2bx,1bx,8bx,7bx,6bx,5bx,,,,,,,
{4}E1f/E8h[4:3]/E7h[2:3]/E6h[4:9]/E5h[1:3]/E4h[4:15]/E3h[2:9]/E2h[4:21]/Cfh[2:13],,,,
,,{2},
{4},,,,,
,,,
,,{2},
{4},,,,{2},
(134){12},,,,{24},{8},
(120){12}6,5,4,(103)3,6,5,{8}4,3>5[0.7079##2.9167],(72){16},{2}2h[16:15],
E
&inote_8=
(193){6}7h[3:1],
{12}E6,E5,E4,E3,{6}6h[3:1],{12}D5,D4,D3,D2,
{6}5h[2:1],{12}4,3,2,1,8,7,6,5,4,3,
{6}2h[3:1],{12}E1,E8,E7,E6,{6}1h[3:1],{12}D8,D7,D6,D5,
{6}8h[2:1],{12}7,6,5,4,3,2,1,8,7,6,
{6}5h[6:1],{12}3,4,2,4,{6}1h[6:1],{12}7,8,6,1,
5,5,3,4,2,8,1,7,5,6,4,5,
{6}B1h[4:7],{12}A4,A5,A6,A7,{6}A8h[4:5],{12}A5,A4,A3,A2,
{6}A1h[4:3],{12}E4,E5,E6,E7,{2}B8h[4:1],
{24}8bx/1bx/E1f,2x/7x-2q6-1>4[4:11],6x/3x-6q2-5<8b[4:11],5x/4x,{1},,,{4},,{16},,,{48},{8}2xpp3>8[2:3]/6xpp7<4[2:3],
,,,,,,,,,,,,,,,7xqq2[2:3]/3xqq6[2:3],
,,,,,,,,,,,,,,,,{4}3/5h[4:1],
{8}4,5,{4}6/C,{8}5,5/4h[8:1],
,3,4/3h[8:1],5,6/C,5,4,3/4h[4:1],
,2,3,4,5/C,6,7,5/6h[4:1],
{16},,B4,B3,{8}E3,5,{16}3h[8:1]/B5,B6,{8}E7,4,4,
{4}6/5h[4:1],{8}6,5,4/C,3,4,6/C,
5,4,3/C,4,5,4/C,5,6pp7b[4:5]*-2[8:7],
{1},{4},,{24}E6,
E5,E4,E3,E2,E1,E8,E7,E6,E5,E4,E3,
{8}E2/Cf,{16}7,8,{8}7,{16}2,1,{8}2,{16}6,5,{8}6,{16}3,4,
3,2,1,8,7,6,5,4,8,1,2,3,4,5,6,7,
1,2,3,4,7,5,7,5,6,4,6,4,7,3,7,3,
8,1,2,3,4,5,6,7,2,1,8,7,6,5,4,3,
{8}8/2,{16}6,5,7,4,6,5,{8}8,{16}3,4,2,5,3,4,
{8}1,{16}7,5,6,4,5,3,4,2,5,1,6,2,7,3,
8,7,6,5,1,2,3,4,2,1,8,7,3,4,5,6,
4,3,2,1,5,6,7,8,6,5,4,3,2,1,8,7,
{4}5/6-2[8:1],{8}4-7[8:1],5,3<6[8:1],2,1-5[8:1],8,
{4}2-7[8:1],8w4[8:1],8,{16}1,2,3,4,
{4}6/5-1[8:1],{8}7-4[8:1],6,8<5[8:1],1,3-7[8:1],2,
{4}1w5[8:1],1,{8}8/2,6/1,{4}8-3[8:1]/4-7[8:1],
8b/4b,{8}1,2>5[8:1],{16},,8,7,{4}6-2[8:1],
{24}3x,2x,1x,8x-3[8:1],{16},,,{64},{192},{32}5x,6x,7x,8x,{4}1x-6[8:1]*-5[8:1],1>4[8:1],
1/7h[4:1],{8}E5,6/4,5/3,4/2h[8:1],C,3/6,
7/4,5/8h[8:1],C,7/3,5/1,Cf/B6/B2,{24},,,8x/4bx,1bx/5x,2x/6bx,
{1}3bx>4[4:11]*>7b[96:151]*>6[32:63]*>5b[48:113]/7x<8b[4:11]*<3[96:151]*<2b[32:63]*<1[48:113],
,,{4},,,{8},3,
3h[4:1],4,{4}5-7[8:1],{8}1,1-5[8:1],,8h[8:3],
,7,7,6,5,4,3,2h[8:3],
,4,{4}4-6[8:1],{8}8,8-4[8:1],,6z2b[8:5],
,,,,,,,5,
{2}5p4[2:1],{8}4>8[8:3],,,8<4[8:3],
,,,1,{4}1-7[8:1],{8}2,2-6[8:1],
,2-4[8:1],,5,{4}5V71[8:3],{8}1,1>4[4:1],
,4<7[4:1],,7,,8,{4}8p4[8:1],
{2}1p8[2:1],{8}8<4[8:3],,,4>8[8:3],
,,,5,{4}5-3[8:1],{8}6,6-2[8:1],
,4,{4}4-6[8:1],4-8[8:1],{8}7,7-5[8:1],
,1,{4}1-7[8:1],{8}4,2,8,6-8-2-4-6[8:23],
{1}Cf/4b<7-1-3-5b[1:3],
{8},,,,,,,,,,,,,,,,,,,7h[2:1],
,6,5,4,
3,3,2/4,2/4,1/5,1/5,8/6,8/6,
{16}7,1,6,2,5,3,4,2,5,3,6,4,{24}7-3b[4:3],{48}8,5,{24}1,2,3,4,
{1}5xh[4:3],
(196){8}8b/1b,{16}7,5,{8}6,{16}3,4,{8}5/2-5[8:1],2/5-2[8:1],,6,
{12}7,7,7,8,8,8,1,1,1,2h[4:1],{24},,,,{8}3,
4,3/5-8[8:1],6/4-1[8:1],5,4,,7h[8:1],
{16}5,6,4,5,3,5,3,5,{12}4,4,4,3xh[4:1]/5xh[4:1],{24},,,,,,,{8}2,
{16}1,8,1,8,{12}2,3,4,{48}7,,,8,,,{16}7,8,
{12}6,5,4,1h[4:1],{24},,,,E3,E4,E5,E6,E7,E8,A3,A4,A5,A6,A7,A8,
,,,{8}5,6/4-8[8:1],3/5-1[8:1],4,5,,2h[8:1],
{16}4,3,5,4,{8}7h[8:1],5h[8:1],{16}6,4,7,3,8,2,{8}1,
Cf,{16}3,4,{8}2,{16}6,5,{8}4/7-4[8:1],7/4-7[8:1],,3,
{12}2,2,2,8,8,8,{16}5,6,4,5,{4}3h[4:1],
{8}1,8/2,1/7-4[8:1],6/8-3[8:1],7,8,{16},,6,5,
7,8,6,1,5,2,4,3,{12}5,5,5,4xh[4:1]/6xh[4:1],{24},,,,,,,{8}7,
{16}8,1,8,1,{12}7,6,5,{48}2,,,1,,,{16}2,1,
{12}3,4,5,8h[4:1],,,3,2,1,8x/4x,1x/5x,2x/6x,
{384}7bp1b[2:3]*p4[2:3],3bp5[128:149],{1},{4},,,{16},,,{64},,,{96},(206){32}E7,
B6,B5,E5,{24}E1/D1,E2/D2,E3/D3,E4/D4,E5/D5,E6/D6,D7/E7,{48},{16}C,1,8,1,8,{12}2,4,3,
7,5,{48}6,,,E5,,,{24}E4,{48},E3,,,E2,,,E1,,,{24}E6/D6,D7/E7,D8/E8,D1/E1,D2/E2,{32}B4,B3,B2,B1,B8,B7,B6,B5,
{4}8xh[8:1],{16}1,2,5/3,6,{4}7h[8:1],{16}2,3,4/6,7,
{24}5/8h[8:1],4,3,2,1,8,7,6,5,4,3,2,{2}5/1-5[8:1]*-6[8:1],
(209){24}E4/D4,E3/D3,E2/D2,E1/D1,E8/D8,E7/D7,E6/D6,E5/D5,E4/D4,D3/E3,{48},{16}C,1,8,1,8,{12}2,4,3,
7,5,6,{48}1,,,8,,,{16}1,8,{24}D2/E2,D3/E3,D4/E4,D5/E5,D6/E6,D7/E7,{32}B8,B1,B2,B3,B4,B5,B6,B7,
{4}1xh[8:1],{16}8,7,2/6,3,{4}4h[8:1],{16}7,6,5/1,2,
{24}4/3h[8:1],5,6,7,8,1,2,3,4,5,6,7,{2}4/8-4[8:1]*-3[8:1],
(212){32}E7f,B7,B8,E1,{24}E5/D5,E4/D4,E3/D3,E2/D2,E1/D1,E8/D8,D7/E7,{48},{16}C,4,5,4,5,{12}3,1,2,
6,8,{48}7,,,E1,,,{24}E2,{48},E3,,,E4,,,E5,,,{24}E8/D8,D7/E7,D6/E6,D5/E5,D4/E4,{32}B1,B2,B3,B4,B5,B6,B7,B8,
(215){4}5xh[8:1],{16}4,3,8/2,7,1/6,2,{8}3h[8:1],{16}5,6,1/7,2,
3/8,7,{8}6h[8:1],{16}4,3,2/6,7,{2}8h[8:1]/5-1[8:1]*-2[8:1],
(218){16}A7f,E7,E6,A5,A2,E2,E1,A8,E4,E5,E6,E7,E8,E1,E2,E3,
5,4,3,2,8,7,6,5,3,2,1,8,4,5,6,7,
(221)2,3,4,5,6/3x,7/4x,8/5x,1/6x,7,8,1,2,3/7x,8x/4,1x/5,2x/6,
3,4,5,6,7/4x,8/5x,1/6x,2/7x,{2}3/8x-4[8:1],
(224){8}6/5,{24}5/6h[8:1],4,3,{8}2,5/6,{24}4/6h[8:1],3,2,1,,,{4}E8/E6/E7f,
{8}4/3,{24}4/3h[8:1],5,6,{8}7,4/3,{24}5/3h[8:1],6,7,8,,,{4}E2/E4/E3f,
(227)5b/4b,{8}5/E7,5,4/E3,4,6/A7/B7,6,
3/B2/A2,3,7/A8/B8,7,2/A1/B1,2,8/C,8,
(230){16}1,5,1,5,8,4,8,4,7,3,7,3,7,3,7,3,
{24}8,1,2,3,4,5,1,8,7,6,5,4,{32}2,3,4,5,6,7,8z4b[8:13],1,2/7,6,5,4,3,2,1s5[8:13],8,
{1}2xh[1:1]/7xh[1:1],
{4},,,,(236)7b/3b,
{8}5h[8:1]/4h[8:1],,3/4,1`2m,8/7,6`5m,
6/5,7`4m,8/1,2`5m,3/4,3`4m,6/5-1[8:1],4`7m,
,,{4}2h[8:1]/8h[8:1],{8}4/3,5`3m,4/6,2/7,
,1-5[8:1]`2m,8-6[8:1],1-3[8:1]`7m,8-4[8:1],1`3m,8,1`6m,
{4}7b/2b,{8}4/5,6/5,4/2,1`8m,3/5,2`1m,
4/6,7`8m,5/6,8`1m,4/3,2`5m,1/8,6/4,
{4}5/2,{8}7-4[8:1]`8m,3-8[8:1]`4m,7-2[8:1]`1m,3-6[8:1]`5m,7,3bq5<2b[4:3]`Cfm,
,,,Cf,,,,,{4}8xV64[4:1],
B6h[4:1],{24},B7,B8,B1,B2,B3,{4}B4h[4:1]/5x-7[8:1],
5-2[8:1],{8}5/C,B8,{2}8xw4[8:1],
{8}A1/B1,A7/B7,B3/A3,B5/A5,2x-6[8:1],6-2[8:1],,8<5[8:1],
,8>3[8:1],,8,{24}B3,B4,B5,B6,B7,B8h[24:7],D2,D3,D4,D5,D6,D7,
,,,,,,{4}2b/6b,8h[8:1]/1h[8:1],{8}8/7,6`1m,
4/5,2`8m,3/4,7`1m,4/6,2`7m,1/8-4[8:1],7`2m,
,,{4}3h[8:1]/5h[8:1],{8}1`7m,2/6,8`4m,3/7,
{4}C,{16}6,5,6,5,7,4,8,3,1,2,1,2,
(240){4}8x-5[8:1]`1m-4[8:1]b,{16}8b/1b,Cf,{8},,,{12}4,3,2,
8,7,6,1,2,3,7,6,5,2,3,4,
{8}8,8,3/7h[16:1],2/6h[16:1],1,1,5/2h[16:1],6/3h[16:1],
7,7,4/6h[16:1],3/5h[16:1],2-5[8:1],2,{12}5,6,7,
{8}3h[8:1],1h[8:1],5h[8:1],7h[8:1],{12}4,3,2,6h[8:1],{24},{8}8h[8:1],
4h[8:1],2h[8:1],7,7,3/6h[16:1],2/5h[16:1],1,1,
{12}6b/2x,3,4,{48}5/8x,,,E1,{24}6,B1f,{48}7,B2,,,{12}8,1,2,{48}3/6x,,,E7,{24}4,B7f,{48}5,B8,,,{12}6,
7,8,{48}1/4x,,,E5,{24}2,B5f,{48}3,B6,,,{12}4,5,6,{48}7/2x,,,E3,{24}8,B3f,{48}1,B4,,,{4}2bx,
{8}7,7h[8:1],,4h[8:1]/3h[8:1],,5h[8:1]/6h[8:1],
,3/4h[8:1],2,6/5h[8:1],{4}7-4[8:1],{12}4,3,2,
{8}1x-5[8:1],1/6,,7x-2[8:1],{4}7/4,{8}3x-6-4-8b[8:3],3/1-6[8:1],
,,,,{4}7w3[8:1],7,
{8}1b/5b-1[4:17],2,3,4,5,6,7,8,
{12}1,2,3,4,5,6,7,8,1,2,3,4,
{8}5,{24}5x,E6,E7,{8}A7f,5,{24}5x,E5,E4,A3f,,,{8}5,{24}5x,D6,D7,
{8}D8f,5,{24}5x,D5,D4,D3f,,,{4}5x-1b[8:1],5x,
7b/3b,{8}6,6h[4:1],{16}7-4[8:1],8,1,2,{8}3,3h[4:1],
{16}2-5[8:1],1,8,7,{8}6,6h[4:1],{16}4-7[8:1],3,2,1,{8}8,8h[4:1],
{16}5,4,3,2,1,8,7,6,3,5,3,5,4,6,4,6,
3,7,3,7,2,8,2,8,1,7,1,7,8-4b[8:1],8,8,8,
8b,Cf,{48},,,,,,{24}A5,E6,E7,A7,E8,E1,A1,E2,E3,A3,E4,E5,{36}A5h[1:1],,E6/D6,,E7/D7,,E8/D8,,E1/D1,
,E2/D2,,E3/D3,,E4/D4,,E5/D5,{288},,,,,,,,{32}B5h[2:1],D6,A6,D7,A7,D8,A8,D1,A1,D2,A2,D3,A3,D4,A4,D5,{4}Cf,
{16}4,6,3,7,2,8,1,5,3,6,2,7,1,8,4,6,
{32}B4,B3,B2,B1,B8,B7,B6,B5,{28}D4/E4,E3/D3,E2/D2,E1/D1,E8/D8,E7/D7,E6/D6,4bx,3bx,2bx,1bx,8bx,7bx,6bx,5bx,,,,,,,
{4}E1f/E8h[4:3]/E7h[2:3]/E6h[4:9]/E5h[1:3]/E4h[4:15]/E3h[2:9]/E2h[4:21]/Cfh[2:13],,,D8hm[4:23],
,,{2}D7hm[1:5],
{4},D6hm[4:17],,,D5hm[2:7],
,,D4hm[4:11],
,,{2}D3hm[1:2],
{4},D2hm[4:5],,,{2}D1hm[2:1],
(134){12}7hm[#2.768906],8m,1m,2m,{24},{8}3m,
(120){12}6,5,4,(103)3,6,5,{8}4,3>5[0.7079##2.9167],(72){16},{2}2h[16:15],
E
