&title=Ultimate Force
&artist=削除
&first=0
&des=BeaToRisu
&lv_5=14+
&des_5=BeaToRisu
&inote_5=
(270){4},,,,{1}8<1[4:13]/1s5s1[4:13],
{2},,,,,,4b/7bh[2:3],
3,
2,{8}2,6,3,5,
{4}4b/3bh[4:5],A2/B2,A1/B1,A8/B8,
A7/B7,A6/B6,{8}5,5,5,5,
{4}4b/3bh[4:5],B2/A2,B1/A1,B8/A8,
B7/A7,B6/A6,{8},6x,,3x,
{1}5h[2:1]/4h[4:3],
{2}D7/E7/E3/B2/B3/B1/B4/C,D7/E7/E3/B2/B3/B1/B4/Cf,
{1}1b<8-4<5b[4:5],
,3b-6-1b[4:5]/4b-1b[4:5],
,A8/A1/E2/E4/A4/D5/A5/D1/C,
E8/E1/E2/B2/E6/B5/B4/E4/C,
B8/E1/E5/B7/C,
{4}6h[1:1],3h[4:3],{32},,,,,,,,,,,,,,,,5xs1b[4:13],
4xz8[32:103],{1},,,{4},,,{16},,,{1}7bh[1:3]/2bh[1:3],
{4},,,,,,,,,7/3,
2/8,1,
8/1-3[8:1],1/8,1/8-6[8:1],8/1,
{8}2,5,2,6,2,7,{4}2/8,
1/8-6b[8:1],8/1,8/1-3b[8:1],1/8,
{8}7,4,7,3,7,2,{4}7/1,
8/1-5[8:1],8/1,1/8-4[8:1],8/1,
{8}3x,7x,{4}3x,4xh[8:1]/6xh[8:1],{8}3x/7x,8x/2x,
{4}1-5b[8:1],1,8-6b[8:1],8,
4-1-5-8b[2:1],5x,6x,7x,
7/2-4[8:1],2/7,2/7-5[8:1],7/2,
{8}3,3,7,7,2,2,{4}8/1,
2/7-5b[8:1],7/2,7/2-4b[8:1],2/7,
{8}6,6,2,2,7,7,{4}1/8,
8/1-5[8:1],8/1,1/8-4[8:1],8/1,
{8}6x,2x,{4}6x,3xh[8:1]/5xh[8:1],{8}6x/2x,1x/7x,
{4}8-4b[8:1],8,1-5b[8:1],1,
{8}6,7,3,2,7,8,{4}1b,
2-7[8:1],2,3-6[8:1],3,
4-1[8:1],4,5-8[8:1],5,
7bh[4:3],{64}A1/D2,E1,B8,B7,{16}E7,{64},,,,,,,,A6/D7,E6,B5,B4,{16}E4,,,{4}5x-2-4-8[4:3],
5x,B7/A7,B6/A6,B5/A5,
6-3[8:1],6,7-2[8:1],7,
8-4[8:1],8,7-5[8:1],7,
1bh[1:1],A5/B5,A4/B4,A3/B3,
{8}2x,3x,4x,5x,6x,7x,8x,1x,
{2}2-7[8:1],8-4[8:1]/1-3[8:1],
6-3[8:1],5-1[8:1]/6-8[8:1],
{4}2bh[1:1],{64}A1/D2,E1,B8,B7,{16}E7,{64},,,,,,,,A6/D7,E6,B5,B4,{16}E4,{64},,,,,,,,D4/A3,E3,B2,B1,{16}E1,,,,,,,{8}3,
3,7,7,{4}2b,
8h[4:1],{16}1,2,{8}3,{16}7,6,{8}5,{24}1,2,3,4,8,7,
6,5,{12}1b,{24},,,,,,,,{8}7,7,2,2,
{4}8-3[8:1],{48}8,E1,B1,B2,E3,A3,,,,,,,{4}1-6b[8:1],{48}1,E1,B8,B7,E7,A6,,,,,,,{2}7h[2:1],
{12}1,8,1,8,1,8,
{1}7h[1:1]/2h[1:1],
{4},,3,6,
{2}3p6[2:1],5h[4:1],
{4}4/6q3[2:1],B4,E5,B5,
3p6[2:1],4,5,4,
6bq3b[2:1],4b,{2}4b,
6q3[2:1],4h[4:1],
{4}5/3p6[2:1],B5,E5,B4,
6q3[2:1],5,4,5,
3bp6b[2:1],5b,5b,5b,
{8}6<3[0.2222##0.6667],,,,{4}4,3V16b[1:1],
4,4,5,6<3[1:1],
4h[32:1],4h[32:1],5h[32:1],5h[32:1],
6bh[2:1],A3/B3,{2}B2/A2,
{32}2x/6h[2:3],3x,{16}4x,,,,,,,{2}E5h[4:1],
{4}B4/A4,B3/A3,B2/A2,1-7-2-6-3-5b[1:1],
5h[8:1],6h[8:1],7h[8:1],8h[8:1],
{2}1h[4:1],{4}8/1,8/1,
{1}7/2x-5-8-3-6-1-4-7-2[4:13],
{4},7xh[8:1],{8},7xh[24:1],{4}7xh[24:1],
,7xh[6:1],,7xh[24:1],
{1}7xh[2:1],
7xh[2:1]/2x-4-1-5-8-6-8-5-1-4-2b[4:13],
{16}8x,7x,6x,5x,,,,,8x,7x,6x,5x,,,,,{8}6xh[16:1],
6xh[16:1],{4}6xh[16:1],6xh[6:1],7xh[6:1],
8xh[6:1],8xh[4:1],{12},,,,,,{6}3,
3,3,4,4,4,
5,5,5,6,6,6,
6,{12}4,3,2,1h[3:1],,,,6,7,8,
1,2,3,7/4,8,1,2,3,{3}4h[6:1],
{6}5,5,5,6,6,6h[12:11],
{16}5,4,3,2,{4}1,{16}4,3,2,1,{4}8,
{6}3,3,3,4,4,4,
5/4,5/4,5/4,4h[2:1]/5h[2:1],{1},,,,{4},{16},{48},{8}E1/B8,
B1,B2,E3,E7/B7,B6,B5,E5,
B2,B1,B8,B7,E6,B5,B4,E4,
E1/A3h[2:3],B8,B7,E7,B6,B5,B4,B3,
E3,B2,B1,E1,,,,,{2}8h[4:1]/2h[4:1],
{8}3,7,4,6,
{2}8h[4:1]/2h[4:1],{8}B3,B7,E5,E6,
{2}8h[4:1]/2h[4:1],{8}3,4,7,6,
{2}8h[4:1]/2h[4:1],{8}A3,A4,A7,A6,
{2}2h[4:1]/8h[4:1],3h[4:1]/7h[4:1],
4h[4:1]/6h[4:1],{8}3,2,7,8,
{2}1h[4:1],2h[4:1]/8h[4:1],
{16}2b,1,8,7,6,5,4,3,7b,8,1,2,3,4,5,6,
{4}7bx/3bx,7bxh[2:1]/3bxh[2:1],{8},,,,2/6,
1/5,8/4,7/3,2,1,8,7,
{4}2bx/6bx,2bxh[2:1]/6bxh[2:1],{8},,,,2,
3,7,6,3,4,{4}5b,
4b/6b,4bh[2:1]/6bh[2:1],{16},,,,,,,,4,
3,2,1,8,7,6,4,3,2,1,8,7,6,,,{4}5b/4b,
5b/4b,{8},5b/4bv2[8:5]*-8>1[8:5],,4b,
,,,,,,,,{4}1-5[0.4444##0.1111],
2h[4:1],1,3h[2:1],
5q1[0.4444##0.1111],6h[4:1],5,7h[1:1],
{8}2,3,{4}4h[2:1],{8},,,,4,
6,2,8,4,6,2,8,
{4}4/5-2[0.4445##0.1111],6,5/7-4[0.4444##0.1111],8,
7/1-6[0.4444##0.1111],2,{2}1/3h[4:1],
{4}D7h[8:1]/E7h[8:1]/B6h[8:1]/B4h[8:1]/E4h[8:1]/D4h[8:1],D8h[8:1]/E8h[8:1]/B8h[8:1]/B2h[8:1]/E3h[8:1]/D3h[8:1],{8},6b/4b,,3bh[8:7]/7bh[8:7],
,,,,,,,,{4}5b/1-4[8:1],
5/1,5/1-6[8:1],5/1,
5/7,5/8,5/1,{8}5/2,2/5,
{4}5/2-4[8:1],5/2,5/8-6[8:1],5/8,
{8}5,7,5,8,5,1,5,2,
{4}3/5-7b[8:1],3/5,3/8-4b[8:1],3/8,
3/5,3/6,3/7,{8}3/8,8/3,
{4}3/8-6b[8:1],8/3,3/8-4b[8:1],3/8,
{8}3,5,3,6,3,7,3,8,
2,2,7,7,3,3,6,6,
4,4,7,7,2,2,5,5,
4,4,3,3,2,2,1,1,
8,8,7,7,8,8,{16}8,1,2,3,
{8}7/4,7,3,3,6,6,2,2,
5,5,3,3,6,6,3,3,
{32}5,6x,,,4,3x,,,5,6x,,,4,3x,,,5,6x,,,4,3x,,,5,6x,,,4,3x,,,5,
6x,{96},,,,,,,,,,{12}2,8,{6}2,5/4,{12}1,7,{6}1,
{1}5pp8[2:3]/4qq1[2:3],
,7<4pp5[2:3]/3>8pp8[2:3],
,7>1-4<6[2:3]/2<8-5>3[2:3],
,7q2[2:3]/2>6[2:3],
,3p3[2:3]/7q7[2:3],
,8<5-8[2:3]/4>1-4[2:3],
{6},,,,,,2,
4,3,7,5,6,
{12}1,2,3,4,,,8,7,6,5,,,5/3,
2,1,8,7,6,5/2,1,8,7,6,5,
4/8,1,2,3,4,5,6/1,2,3,4,5,6,
{1}3h[4:1]/7h[4:1],
{2},E1/B8/B1,
{4}B6,E5,{2}B3,
,E7h[1:4],
1h[2:1],2h[2:1],
3h[2:1],{8}A4,E4,B3,B2,
{1}E2h[2:3],
{4},,,,3h[2:1],
4,6h[2:1],5,
{8}3,4,2,1,3,4,2,1,
{4}4/5,{8}3,6,3,7,3,8,
2,1,3,4,2,1,3,4,
{1}2-6<7-3>2[4:3],
{2}7h[1:1],{6}8,1,2,
{1}3b-7<6-2>3b[2:1],
{2}E8/B1/B8/E2/B7/B6/E6/C,B3/A1/A4/A5/D1/D5/E4/A8/E8/B7/Cf,
{16}1,8,1,8,1-5[8:1],8,1,8,{2}1b,
{8}3,3/4,,6,{4}6/5,7h[4:1],
{8}3,2,7,8,2,1,7,8,
{12}1b,2,3,5,6,7,2,3,4,6,7,8,
{16}2,1,2,1,2-6[8:1],1,2,1,{2}2,
{8}4,4/5,,2,{4}3/2,8h[4:1],
{8}2,3,7,6,3,4,6,5,
{32}A4,E5/D5,A5,E6/D6,A6,E7/D7,A7,E8/D8,A8,E1/D1,A1,E2/D2,A2,E3/D3,A3,E4/D4,{2}A4f/Cfh[4:1],
{8}4,5,4,5,{4}6/3,{8}3,2,
{2}1h[2:1],{4}8bh[32:1],{24}8b/1b,7/2,6/3,5h[24:1]/4h[24:1],,,8b/1b,
7/2,6/3,5h[8:3]/4h[8:3],,,,,,,,,,,,,,,1b/2b,8/3,7/4,6h[24:1]/5h[24:1],,,1b/2b,
8/3,7/4,6h[8:1]/5h[8:1],,,,,,,8b/7b,1/6,2/5,3h[24:1]/4h[24:1],,,,,1b/2b,3/8,7/4,6h[24:1]/5h[24:1],,,{8}4,
7,4,7,3,8,3,8,
2,1b,2,1b,2,3b,2,3b,
1,4,1,4,8,5,8,5,
{2}7h[4:1]/6h[4:1],{24}D8/D6,8bx/5bx/D1h[48:1]/D5h[48:0],1bx/4bx/D2/D4,{192}2bx/3bx,,,D3f,{4},{16},{64},,{96},{1}8bh[2:3]/1bh[2:3],
{4},,,,1/8,
{24}1/8,2,{6}3,1/8,{24},,1/8,7,{6}6,
{8}2,5,2,6,2,7,{4}1b,
2/8,{24}2/8,3,{6}4,7/1,{24},,7/1,6,{6}5,
{8}2,7,3,6,{16}4,5,4,5,4,5,4,5,
{4}2/7,{24}7/2,6,{6}5,2/7,{24},,7/2,3,{6}4,
{8}6x,2x,{4}6x,5xh[8:1]/3xh[8:1],{8}6x/2x,1x/7x,
{4}8-4b[8:1],8,1-3b[8:1],1,
5-8-4-1b[2:1],4x,3x,2x,
2/8,{24}2/8,3,{6}4,8/2,{24},,2/8,7,{6}6,
{16}4,5,{8}4,6,3,7,3,{4}2b/8b,
7/1,{24}7/1,2,{6}3,7/1,{24},,7/1,6,{6}5,
{16}3,4,{8}3,5,2,6,1,{4}7b/8b,
1b,{24}2,3,4,5,,,7,6,5,4,{96},,,,,,,,{32}1x,2x,3x,4x,5x,6x,7x,8x,
{2}1bx,{8}8b,8b,1bx/7b,1bx/7b,
{4}2-5[8:1],2,7-4[8:1],7,
3h[4:1],5h[4:1],7h[4:1],1h[4:1],
{2}8v6[8:1],7v5[8:1],
6v4[8:1],5v3[8:1],
{8}2,1,3,8,4,7,5,6,
{4}7bh[8:1]/4bh[8:1],1bh[8:1]/8bh[8:1],2bh[8:1]/5bh[8:1],8bh[8:1]/7bh[8:1],
{2}1v3b[8:1],2v4b[8:1],
3v5b[8:1],4v6b[8:1],
{8}8,7,1,6,2,5,3,4,
{4}2bh[8:1]/5bh[8:1],1bh[8:1]/8bh[8:1],4bh[8:1]/7bh[8:1],8bh[8:1]/2bh[8:1],
7h[8:1]/1h[8:1],{8}2,8,3,7,4,6,
{4}2h[8:1]/8h[8:1],{8}1,7,2,6,3,5,
{4}1bh[4:1],{8}6h[64:1],5h[64:1],{4}8bh[4:1],{8}3h[64:1],4h[64:1],
{16}1bh[64:1],2,3,4,5/1bh[64:1],6,7,8,1/5bh[64:1],2,3,4,{4}5/1bh[64:1],
{8}2-5[8:1],8,2,7,3,6,2,7,
{12}1b,8b,1b,8b,1b,8b,2b,7b,2b,7b,2b,7b,
{8}3bx/6bx,3bx-8b[8:1]/6bx-1[8:1],,3bx/6bx,,4x/5x,{4}4bx/5bx,
{24}1,2,3,4,5,6,7,8,1,2,3,4,{2}5h[4:1],
{12}3,7,3,7,3,7,2,6,2,6,2,6,
{4}1h[4:1],5w1[4:9],,,,,,,,,,,{1}D1f/D2f/E3f/D3f/E4f/D4f/E5f/E2f/D5f/D6f/E7f/D7f/E8f/D8f/E1f/E6f/Cfh[64:1],
E
