&title=囲い無き世は一期の月影
&artist=豚乙女
&first=-0.04
&lv_5=13+
&des_5=Kaguyaski
&inote_5=
(172){4},{8},,,,,,,,,,,,,,,,,,,5,
,,{1}5h[8:3]/3-7[2:1],
{4},6/4,{8},,,,,6v8-2[16:9]*v4-2[16:9],
,,,,,,,,,3h[8:3],
{16},5,,,{4}C,
{16},,,7,,,{8}4h[4:1],,,,3,
{16},6/4,,,7,,,3-8[8:1],,,,,,,{8}4-7[16:3],
{16},,,,,6,,,,,,,{4}5h[16:3]/4h[16:3],
{16},,,3-7[4:1],,,,,,,,,,,,,{8}5,
,,,,,,4,
,3/B7,{16},,,7,,,,3/B6,,,,,,,{8}5-8[8:3],
{16},3h[16:3],,,,,,,,,,5,
,,{8}4,{16},6,,,{4}3h[16:7],5,
{8},,4x,5,3x,6,3x,6,
4x,5,{16}4,5,4,6,4,5,4,6,3,5,4,6,
3,5,4,5,{8}4-2[16:1],4,8-6[16:1],8,1-4[16:1],1,
5-8[16:1],5,2-5[16:1],2,6-1[16:1],6,4x-7[8:1],2,
4x,5,{16}3xh[8:1],6,,,{8}5,5,3,3,
7,7,1>3[8:1],7,1p5[8:1],7,1x,7,
{32}1x,E2,B2,B3,{8}E4,{16}7,5,{8}7,3/4,5,6,8/7,
6,5,3/4,2,1,4/2,5,5,
6,7/4,{16}5x,4,{8}5,3,6,7/5,4,
{4}3h[8:1]/6h[8:1],2/8-5[16:1],8/2-5[16:1],2/7-4[16:1],
7/1-4[16:1],1/7-5[16:1],7/2-4[16:1],2v5[16:1]/7-3[16:1],
7b/2b,5V31[4:1],1<5[4:1],5>1[4:1],
1V75[4:1],5V31[4:1],1-5[4:1],3x,
,3/8-3[8:1],6/8-5[8:1],4/8-3[8:1],
6/8<3[2:1],8,,2x,
,7h[4:1],{8}4,4,{4}4/5-1[8:1],
5,7h[2:1],{2}6-3[8:1],
{4},5h[4:1],4h[4:1],6h[4:1],
{8}2h[4:1],,,7-3[8:1],,7/1,{16},,4,5,
{8}4,2/6,{4}3h[4:1],{8}5,5,{4}4h[4:1],
{8}6,6,4,B7,5,C,6,C,
{4}7/8,3/4-1[8:1],{8}4/6,5,{4}6-3[8:1],
6/3,7/2-6[8:1],2/8-5[8:1]*-3[8:1],8b,
2/6,4h[4:1],{8}5,3h[8:1],{4}6,
7/2,{8}3,4,5/C,6,7/C,8,
{4}1/C,6-3[8:1],6/4,1-5[8:1],
{8}1/6h[4:1],,,5,3,6/5,7,{16}3,4,
{8}3,{16}1,2,{4}3/6h,,1w5[8:1],
1b,{8}3/7,4,6/5,7,5/3,2h[8:1],
{4}7,{8}8/1v4b[16:1],2,1/8-5[16:1],7,{4}8b/1b,
{8}6,5,{4}4/C,{8}6,5,4/B6,3,
2,1/C,{4}7xq7[4:1],7xq5[8:1],2x,
6/3b,4/6h[4:1],C,2/5h[4:1],
C,{8}2,2v5[16:1],,8v5[16:1],{4}8,
{8}2h[4:1],6,,,6/4,7,5/3,2,
6/4,8,5h[32:19],4,{16}3,2,1,8,7,6,{24}4h,3h,2h,
{4}5/1bh,{16}4/6h[16:3],,,2x,,,{8}7/5h[16:3],{16},1x,,,{8}7-4[8:1],
4/8,{16}7,,,2x,,,{8}6/4,{16},5x,,,{8}3,
5p8[8:11],{4}5b>8[4:5],{8},,,,,,,,,,,,,3/6,
5,8/6,2,{16}4,5,{8}4,2xh[8:1],
,7/5,3,4/6,2,{16}4,6,{8}4,7h[8:1]/2h[8:1],
,C,{16}8,7,6,5,7,6,5,4,6,5,4,3,
{8}2-6[8:1],5,2/6,7,3,{16}8,7,{8}6,5b/2b,
,2-6[8:1],,2/1-5[8:1],,1/8-4[8:1],,7b/8,
,1>3[8:1]/8<6[8:1],,1-4[8:1]/8-5[8:1],,1-6[16:1]/8-3[16:1],,1b/8,
,2bh[8:3],{16},,,,,,4b,5b,{8}4b,6h[8:1]/3h[8:1],
{16},,,,E8,E7,E6,E5,{8}3,4,2,3,
{4}2h[8:1]/6h[8:1],2-6[8:1]*-5[8:1],,8x-4b[8:1],
8bx,{8}6xh[8:3]/C,B7,B5,B2,,5h[4:1],
3,C,,B7,C,B3,{4}C,
{8}6-2[8:1],5,{4}6,{8}8-4[8:1],6,8x<5[8:1],3xh[4:1],
,,{4}2/1-5[16:1],1/8-6[16:1],8/2b,
{8},,7/5,6,{16}4x,5,{8}4,4/3,5,
{16}4x,6,{8}5,3/4,6,{16}4x,5,{8}4,{4}6/3,
{8}4-2[8:1],2-8[8:1],{4}4bx,{8}5,4,6-8[8:1],8-2[8:1],
6,4h[8:1],,4,5,3/6,{4}5h[4:1]/4h[4:1],
{8},,7/5,3,{16}6x,6,{8}4,7/5,3,
{16}7x,7,{8}4,7/5,3,{16}4x,5,{8}4,{4}6/3,
{8}7-3[8:1],5,{4}7,{8}2-7[8:1],5,2-6[8:1],5,
2,5,{4}7bp3[16:1],7b/1bw5[16:1],1b,
7b/3b,6h[8:1]/5h[8:1],{16}3,4,{8}3,{4}7h[8:1]/5h[8:1],
{16}3,4,{8}2,{4}8h[8:1]/5h[8:1],{16}2,4,{8}1,{4}7b/3b,
{8}1-6[8:1]*-5[8:1],3,{4}1,{8}7<5[8:1],5>3[8:1],7,2,
1-5[8:1],7/2,{4}1-7[8:1]*-6[8:1],1b-3[8:1]*-4[8:1],1b-5b[8:1],
{16}1b,Cf,,,3,4,{8}3,5/6,1/8,3/4,8,
6/5,4,{16}3,6,{8}3,7-4[16:1],5,{4}7/3h[8:1],
4/6h[8:1],{16}3,5,{8}3,6/5,1/8,4/3,8,
4/6,3,{16}2,7,{8}2,6xv1[16:1],4,6x/2-5[16:1],7h[8:1],
{4}2bx,{16}6,4,{8}5,2-5[8:1],5,2,7v4[16:1],
3,7,3,5/2,4,7,5/4,6/2,
7/1,5/3,{16}3,4,{8}3,6/5,1/8,4/3,1/8,
3/6,5,3,5/1,{16}5x/1x,2/6,3/7,4/8,{4}5x-2b[16:1]/1x-6[16:1],
5b/1b,{8}3/6,5/4,{16}5/4,3/6,{8}2/7,{4}7xv4b[16:1]/2xv5[16:1],
7b/2b,{8}7b/3b,4/8,{16}4x/8x,3/7,2/6,1/5,{4}4b/8b-5[16:1]*-3b[16:1],
8b-4[16:1],{64}8bx>6[1:3],B8,C,B4,{16}A4f,{1},,,{4},{8},{16}4bx,
4b,
E
