&title=Mechanical Rhapsody
&artist=モリモリあつし
&first=0
&des=Kurene_Saka
&lv_5=13+
&inote_5=(180)
{2},,,
(60)
{4}1,2,3,4,
{4}5,6,7,{12}8qq3[4:3],,8,
{4}1h[192:1],2h[192:1],3h[192:1],{12}4>1[12:1],,5h[4:1],
{12}4<7[12:1],,3h[4:1],4-8[12:1],,6h[4:1],4pp7[4:1],{24},1,{12}2h[12:1],4,,{48}8,1,2,3,
{12}4w8[12:1],,35,4b,,6h[12:1],{36}2,3,4,1,2,3,8,1,2,{24}73,,,4,3,2,
{36}17,6,5,8,7,6,1,8,7,{24}26,,,5,6,7,{36}83,4,5,2,3,4,1,2,3,6,5,4,7,6,5,8,7,6,
{36}1,2,3,8,1,2,7,8,1,6,7,8,5,6,7,4,5,6,{2}7pp6[4:1]/3pp2[6:1],
{12}4b,3,2,6,7,8,{24}1,,2h[12:2],,,{96}8,,,7,{24}6<1[12:1],,,,3,4,
{24}3-8[12:1],,,2,,2,3<6[12:1],,5,,4,,3-7[12:1],,1,,2,,3,,1,,8,,
{12}7h[4:1],4,3,2,16,5/8h[12:4],,1,2,3,14,25,
{4}3h[4:1]/6pp5[4:1],{24},,,,2,3,{12}4w8[24:1],3V16[12:1]/5V72[12:1],2-5[24:1]/6-3[24:1],{4}4b,
{12},3,2,16,7,8,{24}1<6[12:1],,2h[12:2],,,8,{24}1q5[12:1],,,,2,8,
{24}1-6[12:1],,,8,,8,1>4[12:1],,3,,2,,1-5[12:1],,7,,8,,1,,2,,3,,
{12}4v7[12:1],36,25,14,2,3,8v3[12:1],72,61,58,6,7,
{12}8h[12:1]/2-6[12:1],3h[12:1],4h[12:4],{24}2,,,,7,6,{12}5-2[12:1]*-8[12:1],2V41[24:4]/8V61[24:4],37,{4}5,
{24},,7,8,1,2,3,,6,7,48,37,2h[12:1]/6h[12:1],,,15,26,37,4/8h[12:1],,2,1,8,7,
{24}6,,2,1,8,7,6,,3,2,51,48,3h[12:1]/7h[12:1],,,84,15,26,3/7h[12:1],,3,2,18,7,
{24}6,,6,7,18,2,3,,4,3,27,16,5h[12:1]/8h[12:1],,,16,27,38,{12}4/1h[12:1],5h[12:1],3h[12:1],
{12}1h[12:1],7h[12:1],3h[12:1],{24}5h[12:1],,1h[12:2],,,3qq6[24:13],{4}4h[12:4],{24},,,,5,6,
{12}7,,1,1w5[12:1],28,37,1b,,,{24}2h[192:1]/7h[6:1],,,,4,5,
{24}3h[192:1]/6h[12:2],,5,4,3,2,1h[12:2]/4h[192:1],,,,4,,5h[192:1]/3h[12:2],,6,,7,,8h[12:2]/6h[192:1],,,,6,5,
{24}4h[12:2]/7h[192:1],,3,,5,,8h[192:1]/2h[12:2],,,,1,,1h[192:1]/6h[12:2],,3,,4,,5h[12:2]/2h[192:1],,,,8,1,
{24}2h[12:2]/3h[192:1],,4,5,6,7,8h[12:2]/4h[192:1],,6,,3,,2h[12:2]/5h[192:1],,,,7,,6h[192:1]/5h[12:2],,,,8,,
{8}1>4[16:1]*<6[16:1]/7h[192:1],1w5[16:1],1b,1,{12}3h[12:1],7h[12:1],1h[12:2],3h[12:3],,{24}6,7,
{24}8w4[12:1],,17,26,35,4,8,,,,6h[12:1],,8-2[12:1]*V64[12:2],,6-4[12:1]/2,,3/4v7[12:1],,8,,,,3,2,
{24}1-7[12:1]*V35[12:2],,3-5[12:1]/7,,6/5v2[12:1],,1,,,,7h[24:1],,8-3[12:1]*V64[96:15],,2/6V47[12:2],,53,,8,,,,3,2,
{24}1-6[12:1]*V35[96:15],,3V52[12:2],7,2,8,1,,,,8h[24:1],,1>6[12:3],,,,7h[24:1],,6qq1[12:3],,,,8h[24:1],,
{24}1V38[12:2]*V74[12:2],,,8,7,,,,,,,,6h[12:2]/1pp4[12:3],,,,3,2,1qq6[12:3],,,,7,8,
{24}1pp5[12:3],,,4,3,2,1,,,,6,7,8pp3[12:3],,,,2,1,8qq5[12:3],,,,6,7,
{24}8pp3[12:3],,,3,2,1,8,,,,8<4[24:4],7<4[24:3],6>4[24:2],,,,8V24[12:2],1,2V46[12:2],,,,6,7,
{24}8h[12:1],,,2,1,8,7h[12:1],,6h[12:1],,5h[12:1],,4>7[12:3],,,,8h[24:1],,7p4[12:3],,,,5h[24:1],,
{24}4V25[12:2]*V68[12:2],,,6,5-1[12:1],,,,,,,,{2}8h[4:3],
{8}1<3[16:3],5>3[16:1]*V31[8:1],1b,,{12}7h[12:2],,1h[12:1],5h[12:2],,3h[12:1],
{24}7,,3V58[12:2]/7h[48:1],2/6h[48:1],5h[48:1]/1,4h[48:1]/8,3h[12:1]/7h[12:1],,,,{48}8,1,2,3,{12}4w8[12:1],,26,4b,,6h[24:1],
{36}7-3[12:1]/2,3,4,1,2,3,8,1,2,{24}73,,,5,4,3,{36}2-6[12:1]/7,6,5,8,7,6,1,8,7,{24}26,,,5,6,7,
{36}83,4,5,2,3,4,1,2,3,6,5,4,7,6,5,8,7,6,
{36}1,2,3,8,1,2,7,8,1,6,7,8,5,6,7,48,51,2q8[36:7]/6p4[36:10],
{4}7h[96:1]/3h[96:2],,1b,
&inote_6=(180)
{2},,,
(60)
{4}1,2,3,{12}4qq1[4:3],,4,
{4}5,6,7,{12}8qq5[4:3],,8,
{4}1h[192:1],2h[192:1],3h[192:1],{12}4>1[12:1],,5h[4:1],
{12}4<7[12:1],,3h[4:1],4-8[12:1],,6h[4:1],4pp7[4:1],{24},1,{12}2h[12:1],4,,{48}8,1,2,3,
{12}4w8[12:1],,35,4b,,6h[12:1],{36}2,3,4,1,2,3,8,1,2,{24}73,,,4,3,2,
{36}17,6,5,8,7,6,1,8,7,{24}26,,,5,6,7,{36}83,4,5,2,3,4,1,2,3,6,5,4,7,6,5,8,7,6,
{36}1,2,3,8,1,2,7,8,1,6,7,8,5,6,7,4,5,6,{2}7pp6[4:1]/3pp2[6:1],
{12}4b,3,2,6,7,8,{24}1,,2h[12:2],,,{96}6,,,5,{24}4-7[12:1],,,,5,3,
{24}4-1[12:1],,,3,,3,4<7[12:1],,6,,5,,4>1[12:1],,2,,3,,4,,8,,7,,
{12}6h[3:1],3-8[12:1],4-7[12:1],5,3,4,3h[3:1],6-1[12:1],5-2[12:1],4,6,5,
{4}6pp5[4:1]*-3[12:1],{24},,,,2,3,{12}4w8[24:1],3V16[12:1]/5V72[12:1],2-5[24:1]/6-3[24:1],{4}4b,
{12},3,2,16,7,8,{24}1<6[12:1],,2h[12:2],,,8,{24}1q5[12:1],,,,2,8,
{24}1-6[12:1],,,8,,8,1>4[12:1],,3,,2,,1-5[12:1],,7,,8,,1,,2,,3,,
{12}4v7[12:1],36,25,14,2,3,8v3[12:1],72,61,58,6,7,
{12}8h[12:1]/2-6[12:1],3h[12:1],4h[12:4],{24}2,,,,7,6,{12}5-2[12:1]*-8[12:1],2V41[24:4]/8V61[24:4],37,{4}5,
{24},,7,8,1,2,3,,6,7,48,37,2h[12:1]/6h[12:1],,,15,26,37,4/8h[12:1],,2,1,8,7,
{24}6,,2,1,8,7,6,,3,2,51,48,3h[12:1]/7h[12:1],,,84,15,26,3/7h[12:1],,3,2,18,7,
{24}6,,6,7,18,2,3,,4,3,27,16,5h[12:1]/8h[12:1],,,16,27,38,{12}4/1h[12:1],5h[12:1],3h[12:1],
{12}1h[12:1],7h[12:1],3h[12:1],{24}5h[12:1],,1h[12:2],,,3qq6[24:13],{4}4h[12:4],{24},,,,5,6,
{12}7,,1,1w5[12:1],28,37,1b,,,{24}2h[192:1]/7h[6:1],,,,4,5,
{24}3h[192:1]/6h[12:2],,5,4,3,2,1h[12:2]/4h[192:1],,,,4,,5h[192:1]/3h[12:2],,6,,7,,8h[12:2]/6h[192:1],,,,6,5,
{24}4h[12:2]/7h[192:1],,3,,5,,8h[192:1]/2h[12:2],,,,1,,1h[192:1]/6h[12:2],,3,,4,,5h[12:2]/2h[192:1],,,,8,1,
{24}2h[12:2]/3h[192:1],,4,5,6,7,8h[12:2]/4h[192:1],,6,,3,,2h[12:2]/5h[192:1],,,,7,,6h[192:1]/5h[12:2],,,,8,,
{8}1>4[16:1]*<6[16:1]/7h[192:1],1w5[16:1],1b,1,{12}3h[12:1],7h[12:1],1h[12:2],3h[12:3],,{24}6,7,
{24}8w4[12:1],,17,26,35,4,8,,,,6h[12:1],,8-2[12:1]*V64[12:2],,6-4[12:1]/2,,3/4v7[12:1],,8,,,,3,2,
{24}1-7[12:1]*V35[12:2],,3-5[12:1]/7,,6/5v2[12:1],,1,,,,7h[24:1],,8-3[12:1]*V64[96:15],,2/6V47[12:2],,53,,8,,,,3,2,
{24}1-6[12:1]*V35[96:15],,3V52[12:2],7,2,8,1,,,,8h[24:1],,1>6[12:3],,,,7h[24:1],,6qq1[12:3],,,,8h[24:1],,
{24}1V38[12:2]*V74[12:2],,,8,7,,,,,,,,6h[12:2]/1pp4[12:3],,,,3,2,1qq6[12:3],,,,7,8,
{24}1pp5[12:3],,,4,3,2,1,,,,6,7,8pp3[12:3],,,,2,1,8qq5[12:3],,,,6,7,
{24}8pp3[12:3],,,3,2,1,8,,,,8<4[24:4],7<4[24:3],6>4[24:2],,,,8V24[12:2],1,2V46[12:2],,,,6,7,
{24}8h[12:1],,,2,1,8,7h[12:1],,6h[12:1],,5h[12:1],,4>7[12:3],,,,8h[24:1],,7p4[12:3],,,,5h[24:1],,
{24}4V25[12:2]*V68[12:2],,,6,5-1[12:1],,,,,,,,{2}8h[4:3],
{8}1<3[16:3],5>3[16:1]*V31[8:1],1b,,{12}7h[12:2],,1h[12:1],5h[12:2],,3h[12:1],
{24}7,,3V58[12:2]/7h[48:1],2/6h[48:1],5h[48:1]/1,4h[48:1]/8,3h[12:1]/7h[12:1],,,,{48}8,1,2,3,{12}4w8[12:1],,26,4b,,6h[24:1],
{36}7-3[12:1]/2,3,4,1,2,3,8,1,2,{24}73,,,5,4,3,{36}2-6[12:1]/7,6,5,8,7,6,1,8,7,{24}26,,,5,6,7,
{36}83,4,5,2,3,4,1,2,3,6,5,4,7,6,5,8,7,6,
{36}1,2,3,8,1,2,7,8,1,6,7,8,5,6,7,48,51,2q8[36:7]/6p4[36:10],
{4}7h[96:1]/3h[96:2],,1b,
