&title=CarCrash'n'Siren -劇場版-
&artist=MIDy
&first=0
&des_5=轢き殺して、聴いて、叫んで
&lv_5=15
&des=轢き殺して、聴いて、叫んで
&inote_5=(200){4}
,,,,,,,,,,,,,,,,
{16}
E3h[16:64],,,,,,E7h[16:58],,,,,,B3h[16:52],,,,
,,B6h[16:46],,,,,,,,,,,,,,
,,,,,,,,,,,,,,,,
,,,,,,,,,,,,,,,,
Cf,,,,,,,,,,,,,,,,
,,,,,,,,,,,,,,,,
,,,,,,,,,,,,,,,,
,,,,,,,,,,,,,,,,
3h[16:3]/5,,,5,3h[8:1],,,,3h[8:1],,,,6h[16:3]/4,,,4,
6h[8:1],,,,6h[8:1],,,,3,,,,5,,,5,
4,,4,,6,,6,,3,,3,,6,,,4,
5,,5,,4/7V16-4[8:3],,7,,2h[4:1],,,,,,,,
3h[16:3],,,7h[16:3],,,5h[16:3],,,7h[16:3],,,2h[16:3],,,5,
,,3/4h[16:3],,,5h[16:3],,,6h[16:3],,,7h[16:3],,,8,,
1h[16:3]/2,,,4h[16:3],,,3h[16:3],,,2h[16:3],,,6h[16:3],,,7h[16:3],
,,5h[16:3],,,4h[16:3],,,3h[16:3],,,1h[16:3],,,8,,
5,,,7,,,18,,,21,,,34,,,3,
5,,6,,4,5,3,,26,,5,4,6,,2,,
3x,8x,1x,7x,2x,6x,1x,7x,8x,8x,8x,8x,{24}A1,A2,A3,{16}A4h[16:18]/A5h[16:14]/E4h[16:10]/E6h[16:6],,
,,,,,,,,,,,,,,,,,,,,7x,6,,,2x,3,,,{32}27,36,45,,,,,,
{16}3,4,3,5,2-6-1[4:1],,,,2,,6,,5-2[8:1],,4,,
6,,8,,7,8,7,8,6-4[8:1],,4-8[8:1],,2,,,,
1-4[8:1],,3,,6,,6,,5-2-8[8:2]/7,,,,,,,,
5-8[8:1],,6,,1-6-2[8:2],,,,1,,5,,7,,
8-2[8:1],,6,,7,,5-2[8:1],,4,,6,,8,,18,,,,
3-6[8:1],,4,,2,,8,,7-3-8[8:2],,6,,3,,4,,
5h[16:7],,{32}7x,8x,1x,2x,{24}3x,4x,,{16}6x,7x,{32}8x/4x,,
{16},,,,,3,4,
5h[16:3],,,,5h[16:3],,,,5h[8:1],,,5h[8:1],,,3,4,
5h[16:3],,,,5h[16:3],,,,5h[8:1],,,5h[8:1],,,3,4,
5h[16:3],,,,5h[16:3],,,,5h[8:1],,,5h[8:1],,,3,4,
5h[16:3],,,,5h[16:3],,,,5,,,5,,,5,,
3h[16:4],,,,4h[16:4],,,,5h[16:3],,,6h[16:3],,,7h[16:2],,
8h[16:4],,,,1h[16:4],,,,2h[16:3],,,3h[16:3],,,4h[16:2],,
3h[16:4],,,,5h[16:4],,,,4h[16:3],,,3h[16:3],,,2h[16:2],,
8h[16:4],,,,1h[16:4],,,,7h[16:3],,,6h[16:3],,,5h[16:2],,
4h[16:8],,,,3h[16:2],,,,6h[16:3],,,7h[16:3],,,5h[16:2],,
8h[16:8],,,,2h[16:2],,,,1h[16:3],,,8h[16:3],,,7,,
E7,,,,E2,,,,B5,,,B3,,,B8,,
4,,,,6,,,,{64}A2,A7,E2,E8,B2,B7,B3,B6,E4,E6,B4,B5,A4,A5,,,{16},,,,
1-4-1b[8:2],,,,1,,7,,5-1[8:1]*-7[8:1],,,,5,,,,
8-3[8:1],,3V16[8:2],,8,,,,4-1[8:1],,,,E6/B6,,,,
8>3[8:1],,,,5,,6,,7-3[8:1]*-5[8:1],,,,,,,,
2h[16:3],,,4,3,,45,,6,5,6,7,6,,6<1[8:1],,
5,,,,4,,5-1[8:1],,6,,,,2,,8,,8h[16:3],,
,1,8,,78,,7,8,7,8,7,8,7,8,
A6/A5/D6,,1xh[384:1],,{128}7x,8x,,,
,,,,
,,,,
,,,,{16}D3/2x,,8b,,8b,,8bh[8:6],,,,
{128}3,D4,,,,,,,{16},,,{128}3,D4,,,,,,,{16},,,{128}3,D4,,,,,,,{16},,,{128}3/7,D4/D7,,,,,,,{16},,,
{48}3,4,5h[48:10],,,,{16}6,7,8,,8h[8:1],,{48}1,2,3h[48:10],,,,{16}4,5,6,,6h[8:1],,
{48}7,8,1h[48:10],,,,{16}6,5,4,,4h[8:1],,3x,,5x,,4x,,2x,,
{48}6,5,4h[48:10],,,,{16}3,2,1,,1h[8:1],,{48}8,7,6h[48:10],,,,{16}5,4,3,,3h[8:1],,
{48}2,1,8h[48:10],,,,{16}3,4,5,,5h[8:1],,6,5,6b,5b,6b,7b,6bh[8:1],,
{48}8,1,2h[48:10],,,,{16}3,4,5,,5h[8:1],,{48}1,2,3h[48:10],,,,{16}4,5,6,,6h[8:1],,
{48}3,4,5h[48:10],,,,{16}6,7,8,,8h[8:1],,{48}1,2,3,,,,{16}5,,4,,6,,
{48}3,2,1h[48:10],,,,{16}7,6,5,,5h[8:1],,{48}4,3,2h[48:10],,,,{16}1,8,7,,7h[8:1],,
{48}4,3,2h[48:7],,,,{16}7,6,15,4,3,2,{48}1/3,4,5,8,,,7,,,{16}6,15,,,,
{48}1,2,3h[48:10],,,,{16}4,5,6,,6h[8:1],,{48}2,3,4h[48:10],,,,{16}5,6,7,,7,,
2-8q4[8:4],,,,,,,,,,,,,,,,
7<4[8:1],,4-8[8:1],3,2,,2,,1v6[8:1],,6>3-8[8:2],,1,,7,,
7V15[8:2],,6,,2,,,,4,3,2,1,68,,,,
5/2-5[8:1],,5,6,7,8,1,,3-6[8:1],,6>3[8:1],,3-8[8:1],,8,,
7-3[8:1],,6,,1,,,,2,,{24}24,35,46,57,,,6,5,6,
{16}5-1>3[4:1],,,,56,,7,,8-4[8:1],,4<6-2[8:2],,8,,2<7-4[8:2],,
3,,4,,3-7[8:1]*-6[8:1],,,,3,,,,1,,1,2,
35,,{24}8,7,6,{12}45,4,4,{24}6,,6,5,6,,4,,7,,,,
{16}
E4,,,,,,,,,,,,7-2[8:1]/6-3[8:1],,,,{32}A7/A6/E7/D7f,B6f/B7,Cf,B2f/B3,E3/A2/A3/D3f,,,,,,,,{16},,,,,,,,,,
3h[4:2],,,,,,,,4h[4:2],,,,,,,,
5h[8:3],,,,,,6h[8:2],,,,7V14[4:3]*V58[4:3],,,,,,
,,,,,,,,,,,,,,,,
3h[8:2],,,,,,3,,,,4,,,,6h[8:3],,
,,5,,5,,,,6,,,,,,,,
4-1[4:1],,,,,,,,5-8[4:1],,,,,,,,
4-1[4:1],,,,,,,,5-8[4:1],,,,,,,,
3<6[4:2],,,,,,,,7,,,,,,,,
6>3[4:2],,,,,,,,2,,,,,,,,
4p1[4:2],,,,,,,,7,,,,,,,,
4qq1[4:2],,,,,,,,7,,,,,,,,
5q8[4:3],,,,,,,,2,,,,,,,,
2q5[4:3],,,,,,,,7,,,,,,,,
7q2[4:3],,,,,,,,4,,,,,,,,
3h[16:8],,,,,,,,,,,,7-2[8:1]/6-3[8:1],,,,{32}A7/A6/E7/D7f,B6f/B7,Cf,B2f/B3,E3/A2/A3/D3f,,,,{16},,,,,,,,,,,,
E4,,,,E5,,,,E6,,,,E3,,,,
6,,,,6,,4,,6,,,,4/6,,,,
E6,,,,E5,,,,E4,,,,E7,,,,
3,,,,3,,5,,3,,,,5/3,,,,
A2,,,,A4,,,,A3,,,,A6,,,,
2,,,2,4,,4,,4,3,5,4,6,5,7h[8:1],,
4,6,3,7,2,8,1,1,1,1,{32}2,3,4,5,8,,1,,7,6,5,4,
{16}
1,,,,E4h[4:7]/7,,,,7,,,,B3h[4:5]/6,,,,
6,,,,B4h[4:3]/8,,,,8,,,,E3h[4:1]/8,,,,
8,,,,E6h[4:7]/2,,,,2,,,,B6h[4:5]/3,,,,
3,,,,B5h[4:3]/1,,,,1,,,,E7h[4:1]/1,,,,
2,,2,,2,,2,,24,5,26,7,28,,2,,
6,,6,,7,,7,,7,,{32}2,3,4,5,6,,,,7,6,5,4,
{16}3,1,1,8,2,1,3,7,4,4,5,5,3,3,6,6,
4z8[4:2],,,,,,,,,,,,,,,,
3h[16:1],,,,6h[16:1],,,,3h[16:1],,,,6h[16:1],,,,
7,,{24}1,8,1,{16}8,,1,,{24}24,35,46,57,,,1,8,1,,,,
{32}62,53,4,,,,73,64,5,,,,81,72,63,54,,,,,{16}1,1,{32}6,7,8,1,2,3,4,5,
16,8,7,6,5,4,3,2,1/6b,,,,,,,,{16}1<1[4:1],6,2,5,1/4h[8:1],,,,
7,6,5,4,2,4,3,3,7,5,6,6,3,4,6,5,
1b,,3,4,3,,17,,3,4,3,,2,4,2,6,
2,8,2,6,{32}2,1,8,7,6,5,4,3,{16}26,,,7,56,,3,,
5h[8:2],,,,{24}A1,A8,A7,A6,A5,A4,A3h[8:1]/7,,,,,,{32}8,7,6,5,4,3,2,1,
{16}8-5[8:1],,5-8[8:1],,8-3[8:1],,3,,4>1-5[8:2],,4,,7,,,,
A5f/D6/D5/B5/8>3[8:1],,,,8-5[8:1],,5<8[8:1],,8-4[8:1],,3V16[8:2],,3,,,,
5-1[8:1],,,,7,,,,2-6[8:1],,6,,2-4[8:1],,4-8[8:1],,
2,,,,7-3[8:1],,3,,7-1[8:1],,1-5[8:1],,7,,,,
2,,2,4,3,,6,7,8b,1,2,1b,8,7,8b,1,
2b,,6,,7,4,7,4,{24}7,6,5,3,4,5,{32}7,6,5,4,3,4,5,6,
{16}7b,,3,,2,5,2,5,{24}2,3,4,6,5,4,{32}2,3,4,5,6,5,4,3,
{16}2b,,,,8,,1b/7b,,,,2,,1b/3b,,,,
8h[4:1],,,,4,7,5,6,5,6,5,6,{32}4,3,2,1,8,7,6,5,
{16}
4b/8b,,,3,34,,25,,1,5,2,4,3,3,3,3,
3>8-4[8:2],,,,4<1[16:5],5<2[16:5],6<3[16:5],7>4[16:5],A4,A5,A6,A7,A8/4,A1/5,A2/6,A3/7,
A4f/D5/E4/8b,,,,6,6,4,5,3,4,2,4,1b/5b,,,,
7-3[8:1],,,8,7,,1,,{24}4/2,5,6,7,8,1,24,5,6,7,8,1,
{16}A2f/E3/B2/D3/4b,,,,4,5,3,4,{32}2,3x,5,,2,3x,5,,1,2x,4,,1,2x,4,,
{32}2,3x,6,5x,2,3x,6,5x,3,4x,7,6x,3,4x,7,6x,{16}3x,5,2,4,3,5,4,7,
1b<6[8:1],,,,1,,4-7[8:1],,7>2-6[8:2],,2,,3,,,,
5>2[8:1],,,,5,,7-3[8:1],,3<6-1[8:2],,7,,2,,,,
4-7[8:1],,,,2,,3>8-4[8:2],,3,,4<5-1[8:1],,6,,,,
7-3[8:1],,6,,7,,4,,5-1-7[8:2],,6,,2b,,,,
{24}2,3,4,{16}5h[8:2],,,,{24}2,3,4,{32}1,2,3,4,{16}5h[8:2],,,,{24}1,2,3,
{32}8,1,2,3,{16}4,,6,,6,,6,5,7,4,8,3,1,2,
{32}1b,28,37,46,5,,,,,,,,8b,17,26,35,4,,,,,,,,4b/5b,36,27,18,,,,,
{16},,,,2,34,45,56,{24}7,,,4,5,4,{16}5,,3,,
{48}
6,5,,3,,,6,5,,1,,,
6,5,,2,,,6,5,,8,,,
6,5,,3,,,6,5,,1,,,
6b,5,,{16},,,
{48}
3,4,,6,,,3,4,,8,,,
3,4,,7,,,3,4,,1,,,
3,4,,6,,,3,4,,8,,,
3b,4,,{16},,,
{16}1b/2b,1b/2b,1b/2b,1b/2b,,,,,8b/7b,8b/7b,8b/7b,8b/7b,,,,,
3,,,,4,,,,5,,,,7-2[8:1]/6-3[8:1],,,,{32}A7/A6/E7/D7f,B6f/B7,Cf,B2f/B3,E3/A2/A3/D3f,,,
