&title=生命無キ涜神ノ亡都
&artist=Wanwan
&first=0
&des_5=超ぴち姫
&lv_5=13+
&inote_5=(149)
{1},
{4}4b<3>4[4:14]/5h[8:7],,,,,,6h[4:1],,5h[8:7],,,,,,7h[4:1],,
{4}8bpp6[4:5]/3h[8:7],,,,,,4,3,5h[8:7]/2qq4[4:5],,,,,,5-1[8:1]*-2[8:1],,
{4}8^5[4:1],1,2^7[4:1],3,4^1[4:1],5q7[8:3],,,
{4}1^4[4:1],8,7^2[4:1],6,5^8[4:1],4p2[8:3],,,
{4}7^4[4:1],8,1^6[4:1],2,3^8[4:1],4q7[8:3],,,
{4}2^5[4:1],{8}1x,1x,{4}8^3[4:1],{8}7x,7x,{8}6h[4:1],4,3,2,
{32}E6,E5,E4,E3,E2,E1,E8,E7,
{4}Cf,
{4}1h[4:1],{8}5,6,{4}7h[4:1]/3-5[8:1],,{16}8h[16:3]/6,,,5,,,3,,{4}2h[4:1]/4-8[8:1],,{16}7h[8:3],,,5,,,3,,2h[8:3],,,4,,,6,,{4}7h[4:1],8,4p8[8:1]/1^3[8:1],,
{4}8xh[4:1],{8}4,3,{4}2h[4:1]/6-4[8:1],,{16}1h[16:3]/3,,,4,,,6,,{4}7h[4:1]/5-1[8:1],,{16}2h[4:1],,,4,,,6,,8h[4:1],,,6,,,4,,2h[4:1],,,3,,,1,,{4}8^5[8:1]/5-2[8:1],8x/5x,
{4}1h[4:1]/4b,{8}6,7,{4}8^6[8:1]/5,3,{16}2h[16:3]/4,,,5,,,6,,{4}7^4[8:1]/4,1,
{16}3h[4:1],,,1,,,7,,6h[4:1],,,8,,,2,,{4}3h[4:1]/8-4[8:1],,6^8[8:1]/5q1[8:1],,
{4}8xh[4:1],{8}3,2,{4}1^3[8:1]/4,6,{16}7h[4:1]/5,,,4,,,3,,{4}2^5[8:1]/5,8,
{16}7h[16:3],,,6h[16:3],,,5,,3h[16:3],,,2h[16:3],,,1,,8h[16:3],,,7h[16:3],,,6,,{4}5/4,2x-5[8:1]/4x-8[8:1],{1}2b/4bqq6[2:3]*>6[2:3],,
{8}7h[4:1],,4,3,2h[4:1],,5,6,7^4[8:1],,1,2,3-6[8:1],,8,8,
{8}7h[8:1],5,4x/6x,3,2h[8:1],4,3x/5x,6,7h[8:1],5,4x/8x-2-6-4[8:3],3,,,,,
{8}2h[8:1],4,5x/3x,6,7h[8:1],5,6x/4x,3,2h[8:1],4,5x/1x-7-3-5[8:3],6,,,6x,6x,
{16}7b,,6,5,6,,3,,2x,,3,4,3,,5,,1/6,,7,8,7,,2,1,2,,3,,4/6,,7,,
{16}2x,,3,4,3,,6,,7x,,6,5,6,,4,,8/3,,2,1,2,,7,8,7,,6,,5/1,,4,,
{16}2b,,3,5,4,,6,,7x,,6,4,5,,3,,2,,2,4,3,,7,5,6,,3,,2/4,,8,,
{16}7x,,6,4,5,,3,,2x,,3,5,4,,6,,7x,5,7,5,6x,4,6,,{32}E5,E4,E3,E2,E1,E8,E7,E6,
{4}Cf,
{8}2h[2:1],,8,{16}8x,7x,{4}6x^3[8:1],2,{16}1h[16:3],,,4,2x,,6,,{4}7^5[8:1]/4q8[8:1],,{16}1^4[8:1],,,4,,,6,,8^5[8:1],,,5,,,3,,{4}2pp5[8:5],7,6^8[8:1],,
{8}7h[2:1],,1,{16}1x,2x,{4}3x^6[8:1],7,{16}8h[16:3],,,5,7x,,3,,{4}2^4[8:1]/5p1[8:1],,{16}8^5[8:1],,,5,,,3,,1^4[8:1],,,4,,,6,,{4}7h[4:1],{8}8,{16}8x,1x,{4}2x-5[8:1]*-7[8:1],,
{8}8xh[4:1]/6b,,4,{16}4x,3x,{4}2x^5[8:1],2x/7,{16}8^5[8:1],,,1,8x,,2,,{4}3^1[8:1]/4p8[8:1],3x/4x,{16}7^4[8:1],,,8,7x,,1,,2^5[8:1],,,1,2x,,8,,{4}7-2[8:1]/6-3[8:1],7x/6x,8-4[8:1],8x/2,
{8}1h[4:1]/3b,,5,{16}5x,6x,{4}7x^4[8:1],7x/2,{16}1^4[8:1],,,8,1x,,7,,{4}6^8[8:1]/5q1[8:1],6x/5x,{16}2^7[8:1],,,4,2x,,5,,6^3[8:1],,,8,6x,,1,,2-7[8:1],,,4,2x,,5,,{24}6xh[8:1],,,,,,7x-4[8:1]/5x-1[8:1],,,,,,
{1}7b/5b<4qq5[2:7],,7h[4:3],8h[4:3],
{8}7h[4:1],,5,,3,4,2/5,,7h[4:1],,5,,3,4,2/5,,7h[8:1],5,4/8,1/3,{16}2,1,3,8,4,7,5,6,
{1}5b<4[4:3],
{4}Cf,,6qq7[1:1],,{16}E3,,,,,,,,{4}B1,,{2}8h[2:1],1pp4[1:1],{16}E6,,,,,,,,{4}B7,,
{4}2h[2:1],,3pp6[1:1],,{16}E8,,,,,,,,{4}E2,,{2}6h[2:1],2pp1[1:1],{16}8x,,,7x,,,6x,,{4}5x,C,
{8}8^5[8:1],,1,,2^5[8:1],2,1,,7^4[8:1],,8,,1^4[8:1],1,8,,6^1[8:1],,5,,4^1[8:1],4,5,,5^8[8:1],,4,,3^8[8:1],3,4,,7-4[8:1],,8,,2-5[8:1],2,1,,6-1[8:1],,5,,3-8[8:1],3,4,5,7,7h[4:1],8,1,2,2h[4:1],1,8,6xh[4:1],,,,
{16}7b/5b,,,1b/8b,,,2b/4b,,
{16}3b/6b,,8,,5/7h[8:1],,4,4,6-1[8:1],5,7,4,6,,3,,2^5[8:1],8,1,8,2,,7,,8^5[8:1]/6p2[8:1],,,,8/6,,,,
{16}1b-5[8:1],4,2,5,1,,7,,8-4[8:1],3,7,2,8,,2,,{4}1-5[8:1],5qq2[8:3]/1^6[8:1],1x/5x,,
{16}2b/8b,,3,4,3,,5,,7/8,,6,5,6,,4,,3/8,,2,1,2,,8h[8:1],,5,7,4,6,3,5,2,,
{16}8b^5[8:1],,1,,8,,2,2,4v7[8:1],,3,,4/2,,1,,2/6,,,8/4,,,7/2,,{24}1x,2x,3x,7x,6x,5x,Cf,,,,,,
{8}1b-3[8:1],2,8-4[8:1]/1,7,3-5[8:1]/8,{16}2,,{8}7-1[8:1]/3,8,7/2b^5[8:1],{16}3,,{8}6pp1[8:3]/2,7,6/5^2[8:1],,5,,
{8}8b^5[8:1],7,2-6[8:1]/8,{16}1,,{8}7-3[8:1]/2,8,1-5[8:1]/7,{16}2,,{8}1/6b-8[8:1],7,2w6[8:1]/6,1,2,,8/4,,
{16}2b/5b,,3,4,3,4,2,,1/6,,7,8,7,8,6,,2h[8:1],,4,3,7h[8:1],,5,6,1-3[8:1],,4-8[8:1],,1,,4,,
{16}2h[8:1],,1,3,8,4,7,,6h[8:1],,1,5,2,4,3,,6b,5,6,4x,5,4,7x,,
{32}2b,3,4,5,6,7,8,1,
{4}2b-7[8:1]/6b-3[8:1],2bp8[4:9]/6bp4[4:9],
E
