&title=Forsaken Neon
&artist=Dimrain47
&first=4.26
&des_1=M4cTh30ne
&des_2=M4cTh30ne
&des_3=M4cTh30ne
&des_4=M4cTh30ne
&des_5=M4cTh30ne
&lv_5=14+
&des_6=M4cTh30ne
&des_7=M4cTh30ne
&des=M4cTh30ne
&inote_5=(230)
{48}8b,17,62,53,4b,,{8},6x/2x,,8x/4x,3,72,6,4-7[8:1],,6,5-2[8:1],,3,4h[4:1],,
1,1,74,6,82,3,56,74,8/3-6[8:1],,1,2-7[8:1],,4,4h[4:1],,
6x,6,75,75,2,2,13,13,7x,7,61,61,4,4,25,25,
3h[4:1],8,6h[4:1],8,4h[4:1],1,5h[4:1],1,3,2,1,87,
{32}6bx,7,8,1,2,3,4,5,6,E7,E8,E1,E2,E3,E4,E5,{8}E6/Cf,,
1x,1,82,7,54,3,2/7-1[8:1],,7-4[8:1]/3,,7/2-6[8:1],,82,,
7x,7,34,6,58,1,42,3,8h[8:3]/2,3,4,5s1[4:1],,6,6,6,
5x,5,62,3,41,8,65,4,3h[4:1]/7,,6,6,5-8[8:1]/1v4[8:1],,51,,
E3/B2/B3,,C,,B7/B6/E7,,2,3,7x/1,6,3/5-7-3-1[2:1],2,4x,4,4x,4,
{16}B4/B5/E5f,,,,7<4[8:1],8,7,8,7,,,,2>5[8:1],1,2,1,2,,8,,7,,6,,
{8}34,2,1,8,6p1[8:1]/5,6,{16}4x,3,2h[8:1],,
8x,7,6,5,4/2p5[8:1],,2,,8x,7,6h[8:1],,4x,3,2h[8:1],,
1x,8,7,6,{24}5x/1-5[8:1],8,7,6,5,4,{64}3b/1x,Cf,,,,,,,
{16},,2,,2,,2h[4:1],,,,8,7,6,5,43,,2,,43,,1,,4h[8:1]/3h[4:1],,,,4,5,6,7,{24}8x/4b,3,2,1,8,7,6,5,4,3x/8b,1,2,3,4,5,6,7,8,1x/4b,5,6,7,8,1,
{8}2x/6xb,5,5,5,6x/2xb,1,1xw5[8:1],1,{64}1bx/Cf/B1,B4/B6,B5,,,,,,{8},
E8,,E7,,E6,,{24}E3,B3,B4,E5,A5,,A7,E7,B6,B5,E5,,A3,E3,B2,B1,E1,,E7,B7,B8,E1,A1,,
{8}C,,E2,,E3,,E4,,{16}A7/E7/B7/E8,,E6,,A4/E5/E4/B4,,E3,,A1/E1/E2/B1,,E8,,
A6/D6/A5/E6/B6/B5,,A3/D4/A4/E4/B3/B4,,{8}Cf,,
8,,1,,2,,3,4-1[8:1]/5-8[8:1],6,4/5,,,
3,2,1x-6[8:1],8,4-8[8:1],3,5-2[8:1],6,3-7[8:1],4,8x,8,2,2,6,6,4,4,
{12}1xb/3bq4[8:3],8,7,1x,8,7,1,8,7,6pp5[8:3],,,2x,3,4,2x,3,4,2,3,4,{8}5x,6x,
1,1,8,7,6,52,83,61,8,8,1,2,3,47,16,38,
7-3[8:1],7,8-4[8:1],8,1-5[8:1],1,2-6[8:1],2,3-7[8:1],3,4-8[8:1],4,5-1[8:1],5,6-2[8:1],6,
7,7,1,1,3,3,5,5,{16}8xb/C,,C/1xb,,7xb/C,,C/2xb,,8b,1b,8b,1b,8b-4[8:1]b,1b,8b,1b,{64}8b/B8,Cf,B4,,{16},{8},{4},,,
Ch[1:3],,,,E7h[1:2]/B7h[1:2]/B6h[1:2],,,,E3h[1:1]/B2h[1:1]/B3h[1:1],,,,
{8}E1/B8/B1,,E6,E5,E4,,7,6,5,54,4,3,2,,E8,E1,E2,,C,,2,4,3,5,4,6,5,7,6,,
E2,E8,E3,E7,E4,E6,E5,,7,6,5h[4:1],,4h[4:1],,3,3,2,2,
B7/B3,,E6/E2,,E8/E4,,E7/E3,,4,4,5<4[2:1]*p4[2:1],5,,,,,
{8}Cf,,8,,{32}2x/6x,E2/E6,B1/B5,B8/B4,{8}E8/E4,
1,,8,,53,,{32}7x/3x,E7/E3,B6/B2,B5/B1,{8}E5/E1,
6,,2,,17,,{32}3x/5h[4:1],B3,C,B7,{8}A7,
1,,2,,63,,{32}5x/2h[4:1],B5,C,B1,{8}A1,
7x,7x,Cf,,8h[4:1],,2h[4:1],,6,6,5,,4h[8:1]/3h[8:1],,8h[8:1]/1h[8:1],,5h[8:1]/6h[8:1],,
3-8[8:1],,1-6[8:1],,7-4[8:1],,5-2[8:1],,3qq6[2:1],,7,7,7,7,8,8,
7bx-3[8:2],,3-8[8:2],,8-5[8:2],,5-2[8:2],,2-7[8:2],,7-4[8:2],,4-1[8:2],,
1<5[8:2]b,,5>1[8:2],,1V75[8:2]b,,5V31[8:2],,1>5[8:2]b,,5<1[8:2],,1V35[8:2]b,,5V71[8:2],,1,,
2bx-5[8:2]b,,5-8[8:2]b,,8-4[8:2]b,,4-1[8:2]b,,1-6[8:2]b,,6-3[8:2]b,,3-8[8:2]b,,
8>4[8:2],,4<8[8:2]b,,8V24[8:2],,4V68[8:2]b,,8<4[8:2],,4>8[8:2]b,,8V64[8:2],,4V28[8:2]b,,8,,
{8}7x,6,5,4,3/1<6[8:1]*>4[8:1],,1w5[8:1],,1,,8x/2x,82,73,46,5v8[8:1]*v2[8:1],,
5b,,1p5[8:1]*q5[8:1],,1b,,2-5[8:1]/8-4[8:1],,8b/2b,,6<1[8:1]/1v4[8:1],,6b/1b,,5w1[8:1],,5xb,,
73,,26,,8,8,2/4v7[8:1],,4/1-5[8:1],,1/3>8[8:1],,36,,
{32}1b/5b,26,37,84,{16},,7x,,7x,,{32}1b/5b,26,37,84,{16},,1x,,1x,,{32}7b/3b,84,51,62,{16},,
5x,,5x,,{24}7x/3b,6,5,4,3,2,1x/5b,84,73,62,51,84,{4}7bh[1:2]/3bh[1:2],,,,,,,,,
E7,C,E3,{8}B6/E6,B3/E4,,E1/B8/B1,,D6,D7,D8,
D4,D3,D2,,B7/E7,,E3/B2,,45,45,6V84[3:1]/3V15[3:1],63,,,,,8b/1b/E1f,,
2x,1,7,8,3,46,7,3<6[8:1]/8,7,3,8pp5[3:1],7,84,,
4x,4,3,2,17,6,45,2,13,2/4-8[8:1],35,46,,7,1bx-5[8:1]/2bx-6[8:1],3x,1b/2b,,
7,7,48,2,15,6,38,2,2,61,7,7,4-2[8:1]/5-7[8:1],,5x-1[8:1]/4x-8[8:1],,
5x<8[8:1]/4x>1[8:1],,4x/5x,,7x-5[8:1],
7x,2-6[8:1],2,7-1-3-5[3:1],7,7x,,,,
Cf/8b-5[8:1],,8/3-7[8:1],,36,,5,5,2,{16}8,1,8-4[8:1],1,
{8}8,2,2,3,7,5/6h[6:1],{24}3,2,1,8,7,,{8}5x,5x,5,27,81,4/3h[6:1],{24}6,7,8,1,2,,
{8}4x,4xp8[8:1],4,4b/6bq2[8:1],,6b/3b,,3x,4,71,2,56,56,8,56,1,56,3,56,2-6[8:1],74,
2b,8,7,7,64,5,7<4[8:1]/1,4,7b/3b-8[8:1],3,3b/6bv1[8:1],6,6b<2[4:1]b/3b,2,{16}2b,3,4,5,
{8}6hbx[1:1],,1x,,1x,,8x,,7,7,5,5,3,3,1,1,8pp7[2:1],,3,,4,,4qq1[2:1],,8,8,8,7,7,7,
6/3x,7x/2,E1f/D1/A8/A1,,E6,,E5,,E4,,72,7-4[8:1]/2-5[8:1],81,72,,,
8<6>3>1-7-2-6-3-5-7s3-1[1:2],1,{2}8,,,,
{8}4hb[1:2],,E8,,E7,,E6,,E5,,E4,,E3,,E2,,{2}8<5[2:1],,1>4[2:1],,
{8}5h[1:2],,E2/D2,,E3/D3,,E4/D4,,E5/D5,,E6/D6,,E7/D7,,E8/D8,,{2}1V35[2:1],,8z4[2:1],,
{8}3xb-1v8-6[4:5],,6,,6,,6,,5,,5,,5,,5,,{2}2-6[2:1],,8-5[2:1]*-3[2:1],,
{8}2bx<3[4:5],,C,,C,,C,,C,,C,,C,,C,,{2}6pp4[2:1]b,,3qq5[2:1]b,{8},,7x,7x,
{4}7v4[8:1],7/1-5[8:1],1>3[8:1]/7<5[8:1],17,{16}7x,8,7,8,6,1,6,1,5,2,5,2,4,3,4,3,
{4}4-8[8:1],4/2<7[8:1],2-5[8:1]/6-1[8:1],26,{16}2x,8,2,8,3,7,3,7,4,6,4,6,5b,5b,5b,5b,
{4}5-1[8:1],5/7-3[8:1],2q6[8:1]/7,82,{8}7x/1x,7-4[8:1]/1-4[8:1],62,71,,,2,2,
7x-5[8:1],8-4[8:1],7,8,1x-5[8:1],2-4[8:1],1,2,
7x-1[8:1],1-6[8:1],7,3,3x-5[8:1],5-2[8:1],3,7,{4}1b,
D8,D7,D6,D4,D3,D2,{8}18,18,{4}18,D2,D3,{8}D4,D5,{4}D6,D7,D8,C,
{8}6-1[8:1]/3,7,6,5,3-8[8:1]/6,2,3,4,3/6h[2:1],,2,1,8w4[8:1],,8,,
{24}6b/2x,73,8,1,,,{16}2,,2,,{24}3b/7x,48,5,6,,,{16}7,,7,,
{24}8b/4x,37,6,5,,,{16}4,,4,,
{24}4b/8x,5,6,7,8,1,{32}2xv5[8:1]/6bv1[8:1],5,4b,3,2bx,1,8b,7,
{128}6b<5q1q6[1:4]/2x,Cf,E6/E2,
E
