&title=+ i m a z i n e x o +
&artist=sasakure.UK
&first=1.57
&des=呵哈哈哈哈哈
&lv_5=14
&inote_5=(50){4}3-5-8-2v3[8:5],,,,(63){1}3-5-7-1-3[8:5],
(80)2V86[8:5]`3-7[4:1],
(82)3-5-1-7[8:5],
(89){2}3V57[0.6742##1.4059],(82)3V17[0.7317##1.6408],
(33)3-7V15[16:3],(73)3h[#1.643835],
(40){1},
(127)3h[8:47]/4-6v7-1[2:5],
,,1-6-2-4[4:7],
{4},,,,,Ch[8:5],
{8},,,,(170)3,
{16}7,2,{8}7,8/1,{16},,8,1,8,1,{8}8,
3,{16}7,2,{8}7,8/1,{16},,8,1,8,1,{8}8,
1-5[8:1],2-4[8:1],1,2,{16},,8,2,{8}8,1,
8-4[8:1],{16}7-5[8:1],7,{8}8,7,{16},,1,7,{8}1,8,
6,{16}2,7,{8}2,8/1,{16},,1,8,1,8,{8}1,
6,{16}2,7,{8}2,8/1,{16},,1,8,1,8,{8}1,
8-4[8:1],7-5[8:1],8,7,,3,{16}6,1,6,1,
7,8,7,8,6,2,6,2,,2/6,1/5,8/4,{4}7b/3b,
{8}4b-2[8:1],{16}5,6,{8}4,7,2-5[8:1],8,2,6,
5-7[8:1],{16}4,3,{8}5,2,7-4[8:1],3,{16}7/4,3,2,1,
{8}8-3[8:1],1,8-5[8:1],7,8-4-2[4:1],1,8,7,
7,{16}8,2,{8}8-4[8:1],1-5-3[4:1],8,1,{4}E5/A4/A5,
{8}1-3[8:1],{16}8,7,{8}1,6,3-8[8:1],5,3,7,
8-6[8:1],{16}1,2,{8}8,3,6-1[8:1],2,{16}6/1,2,3,4,
{8}5-2[8:1],4,5-8[8:1],6,5-1-3[4:1],4,5,6,
7,{16}8,2,{8}8-5[8:1],1-5-1[4:1],8,1/Cf,{4}Cf,
{8}7-5[8:1],{16}7,8,{8}7,1,2-4[8:1],{16}2,1,{8}2,8,
6-4[8:1],{16}6,7,{8}6,1,2-4[8:1],2,{16}5/2,6,7,8,
{8}1-4[8:1],3,1-6[8:1],7,1-5-3[4:1],3,{4}1,
{8}7,{16}8,1,{8}8,7/2,8-5[8:1],1-4[8:1],8,1,
6-8[8:1],{16}6,4,{8}6,4,3-1[8:1],{16}3,5,{8}3,5,
7-1[8:1],{16}7,5,{8}7,4,2-8[8:1],2,{16}2/8,7,6,5,
{8}4-1[8:1],2,4-7[8:1],6,4-8-2[4:1],2,{4}4,
{12}B7,B6,B5,B2,B3,B4,{32}6x,5x,4x,3x,2x,1x,8x,7x,{4}6bx/A2/B2f,
{8}8h[4:1],{16}A2,A3,{8}A4,{16}7h[4:1],A1,A3,A4,,,6h[4:1],A1,A2,A4,
,,5h[4:1],A1,A2,A3,,,5h[4:1],A4,A3,A2,A1,6,7,8,
{8}1/2,3,2/1,8,1/2-5[8:1],8-5[8:1],2,8,
3,{16}6,4,{8}6,7,5-2[8:1],6-8[8:1],5,6,
1h[4:1],{16}A7,A6,{8}A5,{16}2h[4:1],A8,A6,A5,,,3h[4:1],A8,A7,A5,
,,4h[4:1],A8,A7,A6,,,4h[4:1],A5,A6,A7,A8,3,2,1,
{8}8/7,6,7/8,1,8/7-4[8:1],1-4[8:1],7,1,
{12}5,6,7,4,3,2,{32}7,6,5,4,3,2,1,8,{4}7b/B2f/A2,
{16}1h[4:1],7x,6x,5x,,,2h[4:1],8x,6x,5x,,,3h[4:1],8x,7x,5x,
,,4h[4:1],8x,7x,6x,,,4h[4:1],5x,6x,7x,8x,3,2,1,
{8}8/7,6,7/8,1,8/7-5-3[4:1],1-3[8:1],7,1,
{16},,4,3,{8}4,2,4-6[8:1],3-1[8:1],4,3,
{16}8h[4:1],2x,3x,4x,,,7h[4:1],1x,3x,4x,,,6h[4:1],1x,2x,4x,
,,5h[4:1],1x,2x,3x,,,5h[4:1],4x,3x,2x,1x,6,7,8,
{8}1/2,3,2/1,8,1/2-4[8:1],8-6[8:1],2,8,
5,{16}4h[32:1],6h[32:1],3h[32:1],7h[32:1],3h[32:1],7h[32:1],2h[32:1],8h[32:1],2h[32:1],8h[32:1],1h[32:1],1h[32:1],1h[32:1],1h[32:1],
(85){1}1v7v5v3v1[8:29],
,{16},,{32},Ch[32:11],
{4},,{16},,{32},Ch[4:1],{1},{16},,{8}6-1[8:1],
1-6[8:1],6-4[8:1],4-1[8:1],{16}1-6[8:1],1,{8}1-4[8:1],{1},{4},{16}8/3,
{32}3,4,{16}5/7,6,,5/7,6,7,1/6,{32}6,5,{16}4/2,3,,4/2,3,2,
5/2,{32}2,1,{16}8/6,7,,8/6,7,6,{32}6h[64:1],5h[64:1],6h[64:1],5h[64:1],8h[64:1],1h[64:1],8h[64:1],1h[64:1],4h[64:1],3h[64:1],4h[64:1],3h[64:1],8h[64:1],1h[64:1],8h[64:1],1h[64:1],
(258){16},,,,,,,A2/A7,E3/D3/E7/D7,B3/A3/B6/A6,B4/D4/B5/D6,A5/A4,,,,,(170){4}5bx/4xh[4:1],
{8}7,5h[8:1]/1-7[8:1],,1,{4}3h[8:1],
4/5h[4:1],{8}2,4h[8:1]/8-2[8:1],,8,{4}6h[8:1],
5/4h[4:1],{8}7,5h[8:1]/1-7[8:1],,1,{4}3h[8:1],
{8}3/6xh[4:1],1,7,5,3-5[8:1],5-1[8:1],{4}3,
8xh[4:1],{8}3,1h[8:1]/5-3[8:1],,5,{4}7h[8:1],
8/1h[4:1],{8}6,8h[8:1]/4-6[8:1],,4,{4}2h[8:1],
1/8h[4:1],{8}3,1h[8:1]/5-3[8:1],,5,{4}7h[8:1],
{8}7/2h[8:3],5,3,1,7-1[8:1],1-5[8:1],{4}7,
4xh[4:1],{16}7,8,{8}5h[8:1]/1-7[8:1],{16},,1,2,{4}3h[8:1],
4/5h[4:1],{16}2,1,{8}4h[8:1]/8-2[8:1],{16},,8,7,{4}6h[8:1],
5/4h[4:1],{16}7,8,{8}5h[8:1]/1-7[8:1],{16},,1,2,{4}3h[8:1],
{8}1/6xh[4:1],7,5,3,5-1[8:1],3-7[8:1],5,3,
{4}8xh[4:1],{16}3,4,{8}1h[8:1]/5-3[8:1],{16},,5,6,{4}7h[8:1],
8/1h[4:1],{16}6,5,{8}8h[8:1]/4-6[8:1],{16},,4,3,{4}2h[8:1],
1/8h[4:1],{16}3,4,{8}1h[8:1]/5-3[8:1],{16},,5,6,{4}7h[8:1],
{8}2/5h[8:1],3,7/4h[8:1],6,4/2,5/7,3/1,6/8,
{16}4b,7,4,6,3,5,3,6,1,8,1,7,2,6,3,5,
3b,7,2,6,2,5,1,6,1,7,4,7,2,6,3,5,
2b,6,3,6,4,7,3,7,2,8,3,7,4,6,3,7,
2b,8,3,8,4,6,3,6,2,5,2,7,3,6,2,6,
4,5,4,5,3,6,3,6,2,7,3,6,4,5,2,7,
4,5,3,6,3,6,2,7,1,6,2,3,4,7,6,5,
1,6,1,8,3,8,2,6,2,7,3,7,4,5,4,5,
2,6,2,7,3,7,2,6,2,6,1,2,3,8,7,6,
{4}2b/5h[8:1],{16}2/5,1/4,{8}3h[8:1]/8-2[8:1],{16},,3/8,4,{4}5,
7/4h[8:1],{16}7/4,8/5,{8}6h[8:1]/1-7[8:1],{16},,6/1,5,{4}4,
2/5h[8:1],{16}2/5,1/4,{8}3h[8:1]/8-2[8:1],{16},,3/8,4,{8}5,{16}3,4,
{8}5-8[8:1],6,5-2[8:1],4,5-1-7[4:1],6,5,4,
{4}4h[8:1],{24}3/7,2/6,1/5,4h[8:1]/8V24[8:1],,,,,,4/8,5,6,{8}7,{16}7,6,
{4}1/5h[8:1],{24}6/2,7/3,8/4,5h[8:1]/1V75[8:1],,,,,,5/1,4,3,{8}2,{16}2,3,
{4}8/4h[8:1],{24}3/7,2/6,1/5,4h[8:1]/8V24[8:1],,,,,,4/8,5,6,{8}7,7,
{16}4,8,4,8,5,1,5,1,6,2,6,2,,5/1,8/4,7/3,
(100){1}2b/6b,
{8}3h[16:1],,,3h[8:13]/4-6v7-1-6-2-4[8:17],
E
