&title=riot in the system
&artist=laur
&first=0.02
&lv_4=
&des_4=
&inote_4=
(200){4},
E
&lv_5=14.5
&des_5=白洁
&inote_5=
(200){4},7qq4[2:1],,,{1}2h[1:1],
6h[1:1],
4h[1:1],
7h[1:1],
{8}4,4,{4}7,{8}3,6h[8:3],,,4,
4,5,5,3h[4:1],6,{4}7,
{8}5,5,{4}2h[4:1],{8}6,3h[4:1],,,7,
6,4,4,5,5,{4}3,
8,{8}1-6-8[4:1],1,,,5,5,
{4}6-8-4[4:1],{8}1,1,{4}2-5-3[4:1],{8}6,7,
{4}8v5[8:1],{8}2,1,{4}8v3[8:1],{8}7>7[1:1],6,
{1}5,
{4}3,{8}2-6-4[4:1],2,,,8,7,
{4}6-1-3[4:1],{8}4,4,{4}5-3-8[4:1],{8}8,7,
6-1[8:1],,,E3/A3/E4,,5,{4}5h[8:1],
{16}3,5,4,6,4,5,{8}4,{16}2,8,1,7,{4}1h[8:1],
6-4[8:1],{8}6/2,2h[8:1],{4}8-6[8:1],{8}8/4,4,
{4}3-5[8:1],3/7h[4:1],1-3[8:1],1/5,
6-4[8:1],{8}6/1,2,{4}3h[4:1]/1x-6[8:1],1,
3-5[8:1],{8}3/8,7,{4}6h[4:1]/8-3[8:1],8,
{8}7,8,{4}7-5[8:1]/1p5[8:1],1-3[8:1]/7q3[8:1],1/7,
{6}6h[6:1],4h[6:1],5h[6:1],1-3[8:1]*v6[8:1],{12},{4}1,
{6}4h[6:1],5h[6:1],6h[6:1],7-4[8:1]*v2[8:1],{12},{4}7<7[4:3],
,,,,4/5,
6/4,4/5,3/5-7[8:1],
4/5-1[8:1],5/3-1[8:1],4/3-7[8:1],5/3,
4/5,7/5,2/4,2/8-6[8:1],
1/8-4[8:1],8/2-4[8:1],1/2-6[8:1],8/2,
{8}4,4,3/5,2,7/1,7,1-7[8:1],2,
{4}3/1-4[8:1],1/5-7[8:1],2/5-2[8:1],5/8,
{16}6,5,6,5,7,4,7,4,8,3,8,3,1-7[8:1],2,1,2,
{4}1-3[8:1],1v6[8:1]*v4[8:1],{2}1<6[8:1]*>4[8:1],
{4}5xh[8:1],{8}6/1-3[8:1],6,{4}7/1v6[8:1],5/1-7[8:1]*-3[8:1],
1v4[8:1],{8}5/1>4[8:1],5,{4}1/6,{8}6/1,7/2,
3/8-6[8:1],3,{4}2/8v3[8:1],4/8<5[8:1]*>3[8:1],8v5[8:1],
4/8-6[8:1]*-2[8:1],8-4-8[4:1],{2}8w4[8:1],
{8}7/1-6[8:1],8/2,{4}3/1-4[8:1],{8}5/1-7[8:1],5,{4}6/1v4[8:1],
{8}3/1-6[8:1],3,{4}2/1v3[8:1]*v4[8:1],1<6[8:1]*>4[8:1],1,
{8}8v5[8:1]*v3[8:1],7/1,{4}8-6-4[4:1]*-2-4[4:1],{2}8w4[8:1],
B8h[2:1],{8}5,6,{4}7-5[8:1]/1p5[8:1],
1b-3[8:1]/7bq3[8:1],7b-4[8:1]/1b-5[8:1],7b-1[8:1],2b-4[8:1]/7bv4[8:1],
7b-5[8:1]/2bv5[8:1],7b/2b,{8}2/7,6,2/7,1,
{4}8bs4[8:1]/6bv4[8:1],8b/6b,{8}8/6,1/7,8/2,3/1,
{4}2/4,{8}5,{16}5,5,{4}5,8q4[8:1]/2-5[8:1],
8b-5[8:1]/2bp6[8:1],2b-4[8:1]/8b-3[8:1],2b-6[8:1],7bv4[8:1]/2b-5[8:1],
7b-1[8:1]/2b-8[8:1],2b/7b,{8}2/7,8/3,1/4,{16}8/2,7/3,
{2}6b-2[8:1]/4b-8[8:1],{8}7/3,2/8,{16}1-5-1[1:1],1,1,1,
{1}1,
{4}6,{8}5v2>4[4:1],5,,,8,1,
{4}2-4p8[4:1],{8}5/2,5,{4}6v1-7[4:1],{8}2/6,3,
{4}4v2[8:1],{8}6,5,{4}4v6[8:1],{8}3<3[1:1],2,
{1}1,
{4}7,{8}6q2<8[4:1],6,,,4,3,
{4}2v5-7[4:1],{8}8/2,8,{4}1v6-4[4:1],{8}4/1,3,
2-5[8:1],,,E8/A7/E7,,1,{4}1h[8:1],
{16}7,1,8,2,1,3,,,6,4,5,3,{4}4<2[1:1],
C,,,2x>7>8[1:1],
C,,,8x>6[1:1],
C,,,6x<4[1:1],
C,,,4x<4<6b[1:1],
Cf,,,6bx<6<8b[1:1],
Cf,,,8bx>8>2b[1:1],
Cf,,,2bx>6<7b[2:1],
{1}Cf,
{4}8/2,8/3,1/7,6/1-5[8:1],
7/1-3[8:1],1/8-4[8:1],1/8-6[8:1],8/2,
4/2,4/5,5/7,5/4-8[8:1],
6/4-2[8:1],4/5-1[8:1],4/5-7[8:1],5/3,
{8}2,2,1/7,6,5/3,5,4/6-2[8:1],4,
{4}3/6-8[8:1],6/5-1[8:1],6/5-3[8:1],5/7,
{16}1,2,1,2,8,3,8,3,7,4,7,4,6-1[8:1],5,6,5,
{4}6v3[8:1],6<2[8:1]*>3[8:1],{2}6v8[8:1]*-2[8:1],
{4}6h[4:1],4,{8}5/3,5h[8:1],{16},,,3,
4,,,4,5,,,5,{8}6h[8:1],4,{16},,,3,
4/2,,,6,7/5,,,4,{12}5/3,4,4,5/3v1[8:1],4,4,
{4}3v6[8:1],3>8[8:1]*<6[8:1],{2}3xqq1[8:1]*-7[8:1],
{4}7x-2[8:1]/1x>4[8:1],1b-6[8:1]/7b<4[8:1],1bv4[8:1]/7bv4[8:1],7b/1b>5[8:1]*-3-5[8:1],
{16}1bv6[8:1],,,8bx,1bxv4[8:1],,,8bx,{4}1bxV75[8:1]*<5[8:1],{16}1b,,,2bx-6b[16:3],
{4}8bxv5b[8:1],8bx<5[8:1]/2bx>5[8:1],8bv3[8:1]/2bv5[8:1],2b/8b,
{8}2bx/8bx,{16}7bx/3bx,6bx/4bx,{12}5bx,4bx/6bx,6bx/4bx,{16}6bx/4bx,,,8bx,{32}1bx/7bx,,,,,4bx,5bx/3bx,6bx/2bx,
{4}1xp4[8:1]/7x-4[8:1],7bq3[8:1]/1b>4[8:1],7b<4[8:1]/1b-6[8:1],1b-3-5[8:1]/7b-2[8:1],
7b<6-4[8:1]/1bp4[8:1],7bq4[8:1]/1b>2-4[8:1],{16}7bx/1bx,,,8bx,{12}1bxv4[8:1]/7bxv4[8:1],8bx,8bx,
{4}7bx-5>4[8:1]/1bx-3<4[8:1],1bx-6[8:1]/7bx-2[8:1],{16}7bx/1bx,,,8bx,1bxz5z1b[4:3],2bxs6s2b[16:11],{24}3bx,4bx,5bx/6bx,
{1},{12}3>8[8:1]/5v8[8:1],
4,4,5<8[8:1]/3-7[8:1],,,{4}5-2[8:1]/3>8[8:1],3/5<8[8:1],
{16}3/5v8[8:1],,,4x,5v2[8:1],,,4,5x>2[8:1],,,6,5,,,7v2b[16:3],
{4}5v3b[8:1],5x>2[8:1]/7x>2[8:1],7xv1[8:1]/5xv3[8:1],5/7x,
6,{16}6,,,6,{4}6,{12}2v5[8:1]/8v5[8:1],1,1,
{4}2>5b[8:1]/8<5b[8:1],8-3[8:1]/2v4[8:1],8v6b[8:1]/2<7b[8:1],8-2-4[8:1]/2>5[8:1],
2-6b[8:1]/8-5b[8:1],2/8,{12}7<4[8:1]/1v6[8:1],8,8,7/1,{48},,,,,{16}7xz3b[16:3],
{4}1xs5b[8:1],1x>4[8:1]/7x<4[8:1],7v4[8:1]/1v4[8:1],7/1>4[8:1],
1<6[8:1],1>4[8:1],1w5b[8:1],1b,
{8}7/2b-5[8:1],8,{4}2/7bv4[8:1],7/1b>4[8:1],1/6bv1[8:1],
6/2bv4[8:1],2/7bv5[8:1],7/8bw4[8:1],8b,
{8}7/1bv4[8:1],8,{4}1/7b<4[8:1],7/2b-8-6[8:1],2/7bxv4[8:1],
7x/1b>4[8:1],1/7b-2[8:1],7,{8}1b/7b,6b/2b,
3b/5h[8:1],8,6b/4h[8:1],1,4/3b,8,5/6b,1,
5/3b,6/4b,4/2b,7/5b,8/1b,{16}6x/3bx,2bx/7x,{4}1bx/8x,
{8}7/5b,4,5/2b,6,7/1b,7/1b,7/1b,{16}5/3b,6/2b,
{8}7/1b,7/1b,,8/2b,8/3b,8/4b,{16}5bx/1-5[8:1],8/4bx,7/3bx,6/2bx,
{4}5/1-3-5[8:1],1/7v4[8:1],7/2-7[8:1],2/8<5[8:1],
8/1-5[8:1],1/7-4[8:1],7/2>5[8:1],2/1v6[8:1],
3/1v4[8:1],7/1<6[8:1],2/1>4[8:1],1/8v5[8:1],
2/8v3[8:1],6/8<5[8:1]*>3[8:1],8,{8}7/1,8/2,
{4}3/1-6[8:1],1/4>1[8:1],{2}4/8w4[8:1],
{4}7h[8:1]/1h[8:1],{8}8,3h[8:1]/5h[8:1],{16},,4,4,{4}4>8[8:1],
4/6h[8:1],{8}4,6h[8:1]/2h[8:1],,4,{4}8<4[8:1],
8/2h[8:1],{8}8,6h[8:1]/2h[8:1],,5/1,{16}4/8,5/1,2/6,3/7,
{8}8-5[8:1]/4>1[8:1],4/8,{4}4/8v3[8:1],8x/4>8[8:1],4/7v5[8:1],
7/2-7[8:1],2/8v5[8:1],8,{8}8/2v5[8:1],7,
{4}2/6-1[8:1],6/3>8[8:1],3/7v4[8:1],7<4[8:1]*>2[8:1],
7w3[8:1],7,{16}7/1,,,8x,{4}8xv5[8:1],
8/4>1[8:1],4/7<4[8:1],{2}7/4w8[8:1],
{4}3h[8:1]/5h[8:1],{8}4,7h[8:1]/1h[8:1],{16},,8,8,{4}8<3[8:1],
8/2h[8:1],{8}8,2h[8:1]/6h[8:1],,8,{4}6/4>7[8:1],
4/6h[8:1],{8}4,2h[8:1]/6h[8:1],,4,{4}6-8[8:1]/2-4[8:1],
{2}6/2,E6,
,E4,
,E2,
,E8,
{8}1,1,{4}6,{8}2,7h[8:3],,,1,
1,8,8,2h[4:1],7,{4}6,
{8}8,8,{4}3h[4:1],{8}7,2h[4:1],,,6,
7,1,1,8,8,{4}2h[4:1],
E
