&title=Chrono Joust
&artist=Sta
&first=0.33
&des=Vive
&lv_5=14
&inote_5=(140)
{24}5h[8:1],,,,1,2,3/6h[8:1],,,,2,3,4/7h[8:1],,,,3,4,5/8h[8:1],,,5,,,5h[8:1],,,,8,7,6/4h[8:1],,,,7,6,5/3h[8:1],,,,6,5,4/2h[8:1],,,4,,,
{16}4-8[8:1],,4,,2-5[8:1],,2,,7-4[8:1],,7,,3,,2,,1,8,1,8,2h[32:1],8,1,8,
{32}1-5[8:1],2,3,4,5,6,7,8,
{4}1b,
{16}6h[4:1]/4,,,,4,,3<5[8:1],4,2h[4:1],,,,,,6>4[8:1],5,7h[4:1],,,,,,3,4,2<8[8:1],,3,,4qq5[4:1],,3,,
{1}2<4[2:1],
{8}6h[8:1],1,6pp5[4:1],2,6,3,4b,,
{16}3h[4:1]/5,,,,5,,6>4[8:1],5,7h[4:1],,,,,,3<5[8:1],4,2h[4:1],,,,,,6,5,7>1[8:1],,6,,5pp4[4:1],,6,,
{1}7>5[2:1],
{16}1,2,3,4,6,5,7,5,8,7,6,5,3,4,2,4,
{16}1b,,8,,7h[8:1],,8,7,1,,2,,3h[8:1],,4,3,5,,6,,7h[8:1],,1,7,2>4[8:1],,1,,6<1[8:1],,5,,4qq7[2:1],,,,
{2}8,
{4},
{16}6h[16:3],,4,,3qq4[4:1],,7,,3,,6,,5b,,,,3h[8:1],,5,,6h[8:1],,4,6,3,,2,,1h[8:1],,8,,7h[8:1],,1,7,2,,3,,4>2[8:1],,5,,6q7[4:1],,5,,
{16}2h[4:1],,,,,,2,,1,,1,8,2,,3,,
{16}4,6,3,5,4,5,3,6,4,3,2,1,84,5,6,7,
{12}8h[6:1],2,2,3h[6:1],1,1,8h[6:1],3,2,1h[6:1],8,7,
{12}6h[6:1],2h[12:1],,8h[6:1]/7h[12:1],,,8h[6:1]/1h[12:1],,,2h[12:1]/7h[12:1],,,
{12}1h[6:1],7,7,6h[6:1],8,8,1h[6:1],6,7,8h[6:1],1,2,
{12}3h[6:1],7h[12:1],,5h[6:1]/6h[12:1],,,5h[6:1]/4h[12:1],,,3h[12:1]/6h[12:1],,,
{12}4h[6:1],5,6,7h[6:1],6,5,4h[6:1],7,6,5h[6:1],4,3,
{12}2h[6:1],6h[12:1],,5h[12:1]/3h[6:1],,,4h[12:1]/6h[6:1],,,5h[12:1]/7h[12:1],,,
{12}6h[6:1],5,4,3h[6:1],4,5,6h[6:1],3,4,5h[6:1],6,7,
{4}8<6[12:1]*>3[12:1],8b,
{16}3,5,4,6,5,7,6,,8bq5[8:1]*>3[8:1],,,,8,,,,46,,5,4,6<8[8:1],,3,,6,,2,1,3>8[8:1]*p7[8:1],,4,,3,,,,
{16}1,2,3,4,5>2[8:1]/8<6[8:1],,,,58,,,,25,,3,4,2>5[8:1],,1,,2,,,7,7qq8[4:1],,5,,
{4}7,,
{16}1<6[8:1]/2>4[8:1],,,,12,,,,35,,4,5,3>1[8:1],,6,,3,,7,8,7<4[8:1],,1,,7,,2,,3/5,6,7,8,
{16}1<6[8:1],,,2,1,,2,,1>4[8:1],,,8,1,,8,,1>4[8:1]*<6[8:1],,,,,,,,4,3,2,1,8/5,4,3,2,
{16}1bp4[8:1]*<6[8:1],,,,1,,,,53,,4,5,3>1[8:1],,6,,3,,7,8,6<1[8:1]*q2[8:1],,5,,6,,,,
{16}8,7,6,5,4<7[8:1]/1>3[8:1],,,,41,,,,74,,6,5,7<4[8:1],,8,,7,,,3,3pp1[4:1],,4,,
{4}3,,
{16}8>3[8:1]/7<5[8:1],,,,87,,,,64,,
{24}7,6,5,4<7[8:1],,,2,,,4,,,1,2,3,4>1[8:1],,,6,,,
{16}4,,7,,1,2,3,4,5>2[8:1],,,6,5,,6,,5<8[8:1],,,4,5,,4,,3h[8:1],,
{24}8,7,6,5/3h[8:1],,,7,6,5,4/2h[8:1],,,6,5,4,3/2h[8:1],,,
{16},,2b<8[8:1]/6b,,,4,2,,5pp4[4:1],,1,,,5,3,,2,,2,4,3,,35,,6,5,7>1[8:1],,,5,7,,5,,
{32}8/4b,3,2,,,,7b/1,6,5,,,,5<7[8:1]/1b,2,3,,,,,,
{16}5,,4,4,,,7h[8:1],,5,,6h[8:1],,4qq2[8:1]*pp6[8:1],6,,,,,,,,,
{16}7b>1[8:1]/3b,,,5,7,,4qq5[4:1],,8,,,4,6,,7,,7,5,6,,64,,3,4,2<8[8:1],,,4,2,,5,,
{24}6h[8:1],,,1,2,3,4/6h[8:1],,,1,2,3,4/7h[8:1],,,2,3,4,5h[8:1]/7h[8:1],,,,,,
{24}4b,3,2,1,8,7,6b/4b,3,2,1,8,7,1bp4[8:1]*q6[8:1]/6b,,,,,,
{1}1,,,,
{4},3h[8:5],,
{8},5h[8:3],,,4h[8:7],,,,,,,,6h[8:5],,,,,4pp1[2:1],,
{16},,7,,,7,,,7,,8b/1b,,,,,,,,
{16}3h[4:1],,,,4,,3<5[8:1],4,2h[4:1],,,,,,6>4[8:1],5,7h[4:1],,,,,,3,4,2<8[8:1],,3,,4qq5[4:1],,3,,2<4[2:1],,,,,,,,,,,,,,,,
{8}6h[8:1],1,6pp5[4:1],2,6,3,4b,,
{16}5h[8:1]/3,,2,,1h[8:1],,8<5[8:1],1,7,,2,,3h[8:1],,4<7[8:1],3,5,,2,,1h[8:1],,8,1,7<5[8:1],,8,,1pp8[4:1],,8,,7>5[2:1],,,,,,6h[8:3],,,,,,,,,,
{16}6,4,5,3,5,4,6,3,5,6,7,8,15,4,3,2,
{4}1>4[16:3],8,7>2[16:3],6,5<8[16:3],4,3h[4:1],,
{4}8<5[16:3],1,2<7[16:3],3,4>1[16:3],5,6h[4:1],,
{16}3h[4:1],,,,4,,,,35,,3,4,3h[4:1],,5,,6h[8:1],,5,6,5,,4,,3h[8:1],,4,3,4>2[8:1],,5,,46,,,8,1>3[8:1],,8,,1/7,,,5,4>2[8:1],,5,,4/6<8[8:1],,,,26,,,,
{16}4,3,2,1,8/4,5,6,7,
{16}8b>3[8:1]*q5[8:1],,,,8,,,,64,,5,4,6<8[8:1],,5,,4>1[8:1],,,4,8qq6[8:1]*pp2[8:1],,8,,8,,,,1,2,3,4,5>2[8:1]/8<6[8:1],,,,85,,,,52,,3,4,2<8[8:1],,4,,2/5pp7[8:1],,,5,1pp8[4:1],,1,,1b,,,,,,,,
{24}1/5<8[8:1],,,1,2,3,4,,,3,,,4>1[8:1]/8,,,8,7,6,5,,,6,,,8h[8:1]/2,,,2,3,4,5/8h[8:1],,,6,5,4,3>1[8:1]/8<5[8:1],,,7,,,3b/8b,,,,,,
{16}1h[32:1],5,1,5,2h[32:1],5,2,5,3h[32:1],5,3,5,4h[32:1],5,4,5,63,,,25,,,47,,
{32}4bp7[8:1]*q1[8:1],3,2,1,8,7,6,5,4>4[1:4]*<4[1:4],
E
