&title=Utopiosphere
&artist=Mili
&first=0.664
&des_1=ペースト絵
&des_2=ペースト絵
&des_3=ペースト絵
&des_4=ペースト絵
&des_5=ペースト絵
&lv_5=12+
&des_6=ペースト絵
&des_7=ペースト絵
&des=ペースト絵
&inote_5=(176){4},,,,,,,,3<5[2:1],
4>2[4:1],,,6>4[2:1],
5<7b[4:1],,,3-5[2:1],
4-2[4:1],,,6-4[2:1],
5-7[4:1],,,3v5[2:1],
4>2[4:1],,,6v4[2:1],
5<7b[4:1],,,3pp5[2:1],
4-2[4:1],,,6qq4[2:1],
5h[4:3],{8},,,,6>3[4:1],
4,,7,{4}8>2[8:1],2>4[8:1],
4q8[4:1],{8}1,2q6[4:1],,,{4}8h[4:1],
{8}7>2[4:1],6,,5,{4}5-8[8:1],5w1[4:3],
{8},,,,,,,,3,
4v2[4:1],,2-5[4:1],{4}1,8,
{8}7,8v6[4:1],,6-1[4:1],{4}5,4,
{8}3>1pp3[8:3],1,,8,{4}8>3[4:1],4,
5<3[2:1],3,4,5,
{8}6h,4,{4}6,{8}6h,4,6,5,
{4}6h,6,{8}6h,4,5,4,
3,4,{4}2pp3[2:1],{8},,,,6,
5,{4}7qq6[2:1],{8},,,,3,
4,{4}2h[4:1],{8}E5,B5,,E3,
{4}B3,{8}B6,E7,,B4,{4}E5,
{8}7,8,{4}6pp5[2:1],{8},,,,4,
5,{4}3qq4[2:1],{8},,,,6,
5,{4}7h[4:1],{8}E5,B4,,E7,
{4}B6,{8}B3,E3,,B5,{4}E5,
1>4[2:1],5qq3[2:1],,,E6/B5/E5,
E2/B2/E3,,,5<8[2:1],
1v6[2:1],,,E2/B1/E1,
E6/B6/E7,E5/B4/E4,E2/B2/E3,
8<5[2:1],4p6[2:1],,,E5/B4/E4,
E7/B7/E8,,,1q6[2:1],
5q2[2:1],,,E7/B6/E6,
E3/B3/E4,,,{1}E8h[1:1]/E7h[4:5],
{4}E1,E2,{2}E3h[1:1]/E4h[4:5],
{4},,B1,B8,
{1}E7h[1:1]/E6h[4:5],
{4}E5,E4,{2}E3h[1:1]/E2h[4:5],
{4},,4,5b,
6h[2:1],1,8,7-5[8:1],
7-1[8:1],7,5h[2:1],8,
1,2-4[8:1],2-8[8:1],B3/E3,
4h[4:1],1,8,7-5[8:1],
7-1[8:1],6-4[8:1],2-8[8:1],3-7[8:1],
{1}2<3[2:1],
{4}4/6h[4:1],8,1,2-4[8:1],
2-8[8:1],2,4h[4:1],1,
8,7-5[8:1],7-1[8:1],B6/E7,
5h[2:1],8,1,2-4[8:1],
2-8[8:1],3-5[8:1],7-1[8:1],6-2[8:1],
{1}7>6[2:1],
1xV75[4:3],
3V17[4:3],
5V37[4:3],
8q6[8:5]*>6[8:5],
8V24[4:3],
6V82[4:3],
4V62[4:3],
1<2[8:5],
8>2-4[4:3],
6<8-3[4:3],
{4}5-7>2-4b[4:3],,,4,
{1}5<4[4:3],
6z2[4:7],
{2},,8bh[1:1],
2bh[2:1],
,3b/7b,
{8}3pp4[8:3],3,,4>1[4:1],{4}6,E7,
{8}7pp8[8:3],7,,8<5[4:1],{4}2,E3,
{8}3pp4[8:3],3,,4>1[4:1],{4}6,E7/B6,
{8}7pp8[8:3],7,,8<5[4:1],{4}2,E3/B3,
{8}3qq2[4:1],3,,4,{4}4<2[8:3],E3/E4,
{8}3pp4[4:1],3,,2,{4}2<4[8:3],B3/A3,
{8}2q7[4:1],2,,1,{4}1>7[8:3],A8/B8,
{2}1-5[8:1],1-5b[8:1],
{8}3,4qq3[4:1],,3<8[8:3],{4}1b,Ch[32:1],
{8}2,2qq1[4:1],,1>6[8:3],{4}7b,Ch[32:1],
{8}7,7qq6[4:1],,6<3[8:3],{4}4b,Ch[32:1],
5b<8[4:1],8b>3[4:1],3b<6[4:1],6b<1[4:1],
{1}1b>8[2:1]*<2[2:1],
{8}2,3,5/4,6,{4}7>2[4:1],5,
4b<8[2:1],C,8b>5[2:1],C,
5b<1[2:1],C,{2}1>7[2:1]*<3[2:1],
{8},,,,,,,,,,,,,,,,5,
3h[8:3],{4}4h[8:3],{8},,E3,E5,
,6h[8:3],{4}5h[8:3],{8},,E7,E5,
,2h[8:3],{4}4h[8:3],{8},,E4,E5,
,7h[8:3],{4}5h[8:3],{8},,E6,E5,
,2h[8:3],{4}4h[8:3],{8},,B2,C,
,6h[8:3],{4}5h[8:3],{8}E7,E5,E3,C,
E
E
