&title=羽ノ亡キ蝶
&artist=真理絵・霜月はるか
&first=-0.05
&des_5=ナツナツフユフユ vs ショウノカタマリ
&lv_5=13
&inote_5=(143)
{1},,,{2},
{8}4h[8:3],,,,,4x,5x,,
{4}2^4[8:1],7^4[8:1],1,
{8}13,24,{4}5>1[4:1],1<5[4:1],5pp6[4:1],,
{8}2h[8:3],,3,4>8[4:1]*q8[4:1],,,,,
{8}7^2[8:1],6,5p1[8:1]*q1[8:1],5,,,B6/B5,,
{8}24,,5>8[4:1]/7,46,3v6[8:1]/5,,3,,
{8}57,,2/4<1[4:1],35,4/6q3[8:1],,6,,
{8}5h[8:3],,4,4^1[8:1]*^7[8:1],,,,,
{144}1b/5,,,,,,,,,,,,,,,,,,,,,,,,,,,3/7b,,,,,,,,,,,,,,,,,,,,,,,,,,,3b/7,,,,,,,,,,,,,,,,,,,,,,,,,1/5b,,,,,,,,,,,,,,,,,,,,,,,,,,,,,,,,,,,,,,,,,,,,,,,,,,,,,,,,,,,,,,,,,
{8}5h[2:1],,4,,4,5,3,1V75[4:1]/2,,5-3[8:1],3,1,,2,4^7[8:1],4,
{8}1h[8:5],,8,,4,5,6,6qq5[4:1]/8,,5^8[8:1],3,1,,
{16}1,,8x,1,8,,
{8}1bx^4[4:1],,6,{16}5,5,,,4,,35,,2h[4:1],,,,
{8}1^6[4:1],,{16}3,,4,,,4,5,,5,,
{8}4/6h[4:1],,{16}B2,,,4,4h[4:1],,7,,B7,,,,
{16}5,4,,4,5,,,5,3,,4,,3,4,3,,
{8}1h[2:1]/8,,8,,8,1,7,5V71[4:1]/6,,1-3[8:1],,6,6-4[8:1],6,3-7[8:1],3,
{8}5h[2:1],,8,,8,1,2,3qq5[4:1],,7,8^5[8:1],8,,{16}4,,4x,5,4,,
{8}5bxV37[4:1],,{16}1,,,8,8,,7,,6h[4:1]/8,,,,
{8}7V52[4:1],,{16}8,,,1,1,,2,,1>6[4:1]/3,,,,
{8}1,,{16}B3,,,1,1h[4:1],,6,,B6,,,,
{16}8,1,,1,8,,8,1,,7,8,7,8,7,1,,
{8}2x/8x,1bx/7bx^2v4[2:1],,3h[4:1],,,3,,
{16}4<1[4:1],,4,,,,3,3,,,1h[8:1]/2h[8:1],,,,,,
{8}4x/6x,{16}3bxpp4-1^2[2:1]/5bx,,,,5,5,,,,,6h[4:1],,,,
{8}3,4,5,6qq3[4:1],,2-8[8:1]b,2,,4bhx[4:1],,,
{16}1h[4:1]/6,,,7,7,,2,,8,,1,,8,,47,,6,5,6,,5,,8,,2,,3h[4:1]/4h[8:1],,,,5,,4,5,4,,5,,46,,,,
{8}8b-4[8:1]b,8b,,
{16}3,,2,,1,,7,8,7,6,5-2^3[8:1],,3-6^5[8:1]b,,8,,1,,2,,3,4,3,,12,,
{16}4^1[8:1]/8,,6,6,4,,5,6,7-1[8:1],,{8}1V35[4:1]/5,7x,6bx,,,
{16}4/6h[8:1],,,6,5,,7/4-8[8:1],,4,,
{8}7V53[8:1],7,8h[8:1],,{16}1h[8:1],3,3,,2,,13,,2,1,2-5[8:1],,,,
{16}7h[8:1],,,7,6,,6,,5,4,7-4[8:1],,
{16}7,,1,,2,,3,4,3,,5,,4,5,3,,
{4}1>5[4:1],5<1[4:1],{8}1,2,3,4,{16}7,5,7,5,6,4,6,4,5,3,5,,
{16}2,1,2,3,4^2-6[8:1],,6^8-4[8:1]b,,8,,1h[8:1],,,,4,5,4,,78,,
{16}5^8[8:1]/1,,3,3,5,,4,3,2^8[8:1],,{8}8<4[4:1]/4,2x,3bx,,,
{16}5/3h[8:1],,,3,4,,2/5-1[8:1],,5,,
{8}2V46[8:1],2,1h[8:1],,{16}8h[8:1],6,6,,7,,86,,1,8,1,,
{16}6,6,5,,4,4,7,,8,8,1,,28,,,,
{16}3,3,4,,5,5,2,,1,1,8,,17,,
{4}1-6-3-8[4:3]/7-4-1-6[4:3],,,,,
{4}4h[8:1]/6h[8:1],1h[8:1]/2h[8:1],2h[8:1]/3h[8:1],
{16}34,,4,,35,3,,6,5-7[8:1],,48,,25,,,,
{16}21,,1,,28,2,,7,8-6[8:1],,15,,38,,,,
{16}78,,6,,5,5h[16:3],,1,1-5[8:1],,26,,17,,,,
{16}65,,7,,8,8h[16:3],,4,4-8[8:1],,37,,46,,
{8}5x,4hx[8:1]/8x^3[2:1],,5h[8:1],,6h[8:1],,
{8}7x,1x^6[2:1]/5hx[8:1],,4h[8:1],,3h[8:1],,
{8}2,1,8,{16}7,,,5,6,,6,4,,4,5,,4x,5,4,,7,5,,2,4,,6,5,,3,4,3,5-1[16:1],,,,C,,,,
E
