&title=GOCHA GOCHA Ensemble
&artist=ぱらどっと
&first=2.5
&lv_5=13+
&des=H3-T3ch Full3n
&inote_5=(150)
{8}
1bx,7h[16:1],3,B5h[8:1],1,1x-5[8:1],,C/1,
,7h[16:1],2x-4[12:1],5h[16:1],2x-8b[12:1],7,,5h[33554432:1],
4b-6[12:1]/5,1/8b>2[12:1],,,C,,7h[33554432:1]/3,8x-4-7-5[16:5]/4h[8:1],
,,3x-1-4-8[16:5],1,3x,,5x,7,
E6h[8:1]/B6h[16:3]/1v2>3[8:2],,,,8bxv7<6[8:2],4xh[8:1],,B3h[8:2]/E4h[8:2],
,5x-7[12:1],8x,5-3[12:1],2x,,1h[8:1],,1bq3[8:2]/8,4/5b-7[12:1],,,,,18,27,
1h[8:1]/8h[8:1],,2h[8:1]/7h[8:1],,3h[8:1]/6h[8:1],,4h[8:1]/5h[8:1],,
4qq1[8:2]/5<7[12:1],,,,,8xh[16:1],{32}E1,E8,E7,E6,E5,E4,E3,E2,
{8}E1/D1,,B6/B7,,B2/B3,,E5/D5,,
1,,7,,3,,5,,
1h[8:1],7h[8:1],3h[8:1],5h[8:1],{16}1,1,7,7,3,3,5,5,
{8}3x,,2x,,1xz5[8:1],,1xb,8x,
{16}1x>5[8:2],,,,E5,E6,E7,E8,E1/B1,,E3h[8:1],,E5,,,,
8<4[8:2],,1xh[33554432:1],,E5,E4,E3,E2,E1/B8,,E7,,E5h[8:1],,,,
1xh[33554432:1],,8h[33554432:1],,1h[8:2],,D1,D8,D7,D6,D5hf[8:1],,C,,,,
{32}E8,E7,E6,,,,,,E2,E3,E4,,,,E8,E7,E6/B5,,,E2,E3,E4/B4,,,{16}8,,1,,
{16}8x<4[8:2]/1,,,,E5,E4,E3,E2,E1h[8:1],,,,A5,A6,A7,A8,
1x>5[8:2],,,,E5,E6,E7,E8,E1/B1,,E3,,E5h[8:1],,,,
8xh[3554432:1],,1b,,7,1b,,7,1b,,7,1b,,7,1b,,
{8}7x,,8x,,1xz5[8:1],,1b,,
7/4>8[8:2],,8q5b[8:2]*q5q2[8:4],,5,,7h[8:1],,
5<1[8:2],,1p4b[8:2]*p4p7[8:4],,4,,2,,
4>2b[8:1]*>8[8:2],,8p2[8:2],,5,,7h[8:1],,
{16}5,4,5,4,6,3,6,3,7,2,7,2,1b/8-4-8[8:14],,1/8b,,
{16}1h[16:3],,,,,,2h[16:3],,,,,,3h[8:1],,,,
5h[16:3],,,,,,6h[16:3],,,,,,A7f,,,,
{8}1bh[8:1],7bh[8:1],3bh[8:1],5bh[8:1],{16}1b,1b,7b,7b,3b,3b,5b,5b,
{8}3,,2,,1z5[8:1],,1b/C,,
{24}8v3[8:1],7,6,5,4,3,{8},,
{16}6b,A8/B8,A1/B1,A2/B2,A3/B3,A4/B4,A5h[16:1]/B5h[16:1],,
7,A1/B1,A2/B2,A3/B3,A4/B4,A5/B5,A6h[16:1]/B6h[16:1],,
8b,A2/B2,A3/B3,A4/B4,A5/B5,A6/B6,A7h[16:1]/B7h[16:1],,
1xz5[8:1]*v6[8:1],,,,,,,,
2b,A8/B8,A7/B7,A6/B6,A5/B5,A4/B4,A3h[16:1]/B3h[16:1],,
{8}1xh[8:2],,2h[8:2],,
3hb[8:2],,4h[8:2],,
{16}Ch[16:1],,,,,,,,1/8b,,4,,7,,2,2,
81,,5,,2,,7,7,8-4[8:1]/1b,,,,81,,,,
1bh[8:1],,3,1bh[8:1],,4,1bh[8:1],,5,1bh[8:1],,6,1bh[8:1],,7x,,
{8}B8,,B2,,B6,,B4h[8:2],,
(75)
8<5[8:1],1,E4,,1>4[8:1],8,E6,,
8<5[8:1],7,E4,,1>4[8:1],2,E6,,
8<2[8:2],5,C,,1>7[8:2],4,C,,
8>3[8:1],2,4pp7[8:2],6,,,E3,,
(150)1>4q5<8[8:12]/8b,,,,,,,,
,,,,,,,,
1q5[8:4],,,,,,,,
8p4[8:4],,,,,,,,
7/A2,,7/A3,,7/A4,,7h[8:1]/A5,,
6/A1,,6/A2,,6/A3,,6/A4,,
5/A8,,5/A1,,5/A2,,5h[8:1]/A3,,
1/5<8[8:4],,2,,3,,4,,
{16}3,5,3,5,2,6,2,6,1-5[8:1],7,1,7,1b,,,,
6,4,6,4,7,3,7,3,8-4[8:1],2,8,2,8b,,,,
3,5,3,5,2,6,2,6,{32}3,4,5,6,7,8,1,2,3,4,5,6,7,8,1,2,
{8}3b,,2b/7,,1bz5[8:1]/8,,1/8-4b[12:1],,
2-5[12:1]/8,,2-8[12:1]/7-3[12:1],,2-6[12:1]/7,,2>6>2[16:7]/5-8b[12:1],,
2/5,,1,,8,,7-5b[12:1]/2-4-8[16:3],,
2/7-3[12:1],,7-5[12:1],,7-1[12:1]/2-6[12:1],,2>5[8:2]/7,,
5<8[8:2],,8>3[8:2],,3v5[16:3],,7-1b[12:1],,
7-4[12:1],,7-1[12:1]/2-6[12:1],,7-3[12:1]/2,,7<3<7[16:7]/4-1b[12:1],,
7/4,,8,,1,,2-4b[12:1]/7-5-1[16:3],,
7/2-6[12:1],,2-4[12:1],,2-8[12:1]/7-3[12:1],,7<4[8:2]/2,,
4>1[8:2],,1<6[8:2],,6v4[16:3],,1,,
{16}1b,,A2,A3h[8:1],,A8,A7h[8:1],,D2,D3,D4,D5,D1,D8,D7,D6,
A2,A3h[8:1],,7x,,6x,,5x<1[8:2],,E1,E8,E7,E6,E5,E4,E3,
E2h[8:1],,,E8,,E1,C,E5,{24}E2,E3,E4,E8,E7,E6,D2,D3,D4,D8,D7,D6,
{16}1h[16:1],,,28,,37,37,,2b,,8,,1,,7,,
{8}2-5[8:1],8-5[8:1],2,8,1-4[8:1],7-4[8:1],1,7,
2q6[8:1],8p4[8:1],2b,8b,1q5[8:1],7p3[8:1],1b,7b,
{16}2,8,2,8,3,7,3,7,2,8,2,8,1,1,1,1,
{32}2xb,3,4,5,6,7,8,1,2b,3,4,5,6,7,8,1,2b,3,4,5,6,7,8,1,Cf/2b,,,,,,,,
{16}1x>5[8:2],,,,D5/E5,E6/D6,E7/D7,E8/D8,D1,,E3h[8:1]/D3h[8:1],,E5/D5,,,,
8<4[8:2],,1xh[33554432:1],,E5/D5,E4/D4,E3/D3,E2/D2,D1,,E7/D7,,E5h[8:1]/D5h[8:1],,,,
1xh[33554432:1],,8h[33554432:1],,1h[8:2],,D1,D8,D7,D6,D5hf[8:1],,C,,,,
{32}E8,E7,E6h[32:4],,,,,,E2,E3,E4h[32:3],,,,E8,E7,E6/B5,,,E2,E3,E4/B4,,,{16}8,,1,,
{16}8x<4[8:2]/1,,,,E5/D5,E4/D4,E3/D3,E2/D2,D1,,,,A5/B5,A6/B6,A7/B7,A8/B8,
1x>5[8:2],,,,E5/D5,E6/D6,E7/D7,E8/D8,D1,,E3/D3,,E5h[8:1]/D5h[8:1],,,,
8xh[33554432:1],,1b,,7,1b,,6,1b,,5,1b,,4,1b,,
{8}3x,,2x/7x,,1xz5[8:1]/8-4[8:1],,1b/8b,,
{16}1-7[8:1]/8b,,4b/5v3[8:1],,,,,,,2,,7,4xh[16:1],,5xh[16:1],,
1bh[8:1],,,7h[8:1]/8bh[8:1],,,3h[8:1]/5bh[8:1],,
,2bh[8:1]/8h[8:1],,,3b/7b,,1b/5b,,
8x<5[12:1],,,,{48}A8f/1b,2h[33554432:1],3,4,
