&title=解闷消愁咆勃爵士乐
&artist=sasakure.UK/重音テト
&first=-0.25
&des=xiao
&des_5=xiao
&lv_5=13+
&inote_5=(130){4},,4h[4:7],{64}B5,E5,{4},{16},,,{32},{64}B5,
E5,{4},{16},,,{32},{64}B5,E5,{4},{16},,,{32},{64}B5,
E5,,,,,,,,,,,,,,,{4}5h[4:7],{64}B4,E5,{4},{16},,,{32},{64}B4,
E5,{4},{16},,,{32},{64}B4,E5,{4},{16},,,{32},{64}B4,
E5,,,,,,,,,,,,,,,{4}4h[4:1],{64}B5,E5,,,,,,,,,,,,,,,{4}4h[4:1],
{64}B5,E5,,,,,,,,,,,,,,,{4}5h[4:1],{64}B4,E5,,,,,,,,,,,,,,,{4}5h[4:1],
{64}B4,E5,,,,,,,,,,,,,,,{4}3h[8:1],{64}3h[8:1]/B5,E5,,,,,,,,,,,,,,,{4}6h[8:1],
{64}6h[8:1]/B4,E5,,,,,,,,,,,,,,,{16}B1,B2,B3,B4,B5,B6,B7,B8,
{32}E2,E3,E4,E5,E6,E7,E8,E1,E2,E3,E4,E5,E6,E7,E8,E1,{4}Cf/E2,{16}3x,5x,4x,6x,
5xh[16:1],,,4xh[16:1]/6xh[16:1],,,{8}6xh[16:1]/4xqq4[4:1],,4xpp4[4:1],{16},E1,E8,E7,
{4}6xh[4:1],{48}B4,B3,B2,E2,,,,,,,,,{4}1bx/8bx,{64}E8,B7,B6,E6,,,,,E2,B2,B3,E4,,,,,E7,
B6,B5,E5,,,,,E3,B3,B4,E5,,,,,{16}6x,4x,5x,3x,4xh[16:1]/2xh[16:1],,,4xh[16:1]/2xh[8:1],{32},,,,B8,B7,B6,B5,
B4,B3,B2,B1,8x,7x,6x,5x,4x,3x,2x,1x,8x,1x,8x,1x,{4}8bx,{16}6,4,5,3,
4h[16:1],,,5h[16:1]/3h[16:3],,,,5,2,4,3,5,4,6,5,7,
8,6,1,5h[8:1],{8}2,3,{12}4b,{24}6x,5x,,3x,4x,5x,{12}6x,{24}4x,3x,
5x,6x,{192},,,,,,,,{64}B5,E5,{192},,,,,,,,,,,,,,,,,,{24}3,4,3,4,3,4,{2}3bqq3pp3b[2:1],
{4},Cf,{8}2>5[8:1],{16}1,1,,8,,,{8}7<4[8:1],
{16}8,8,,1,,,{8}3>8[8:1],{16}4,4,,5,,,{8}6<1[8:1],
{16}5,5,,4,,,{8}3v8[8:1],{16}4,4,,5,,,{8}6v1[8:1],
{16}5,5,,4,,,{4}3qq3[4:1],3pp3b[4:1],
,A3f,{8}6V84[16:3],{16}5,5,,4,,,{8}3V15[16:3],
{16}4,4,,5,,,{2}6v3q6[2:1],
{8}Cf,{16},,,,3,3,4,3,5,4,6,5,{8}6,
6-3[0.6154##0.3077]*-3[0.6154##0.3077],,,,,B1f,,4b/3b,
,6,5,4,{4}3h[4:1]/4h[8:1],E8f,
3h[4:1]/4h[8:1],A7f,{16}3h[4:1]/4h[8:1],,,,,D7f,,,{4}6h[4:1]/5h[8:1],
4h[4:1],A6f,4h[4:1]/5h[8:1],
D6f,5h[4:1]/4h[8:1],A3f,4h[4:1]/3h[8:1],
{8}C,2,3,4,{4}6h[8:1]/5h[4:1],E8,
5h[4:1]/4h[8:1],B8,3h[4:1]/4h[8:1],B1,
5h[4:1]/4h[8:1],E2,{2}4-1v6-3v8-5p5[1:2],
{4},,,,,,,C,
{8}4/3,{16}5,4,,6,{8}5,{16}7,6,6,5,,,3,4,
5,6,4,5,4,5,3,4,3,5,,4,,,,6,
5,7,3,4,2,7,6,5,2,3,4,6,{8}5,{16}7,6,
7,2,3,2,5,6,7,8,1,2,3,4,{4}5-1[16:1],
{16},,2,2,{8}1,{16}3,4h[16:1],,5,{8}4,{4}6pp6p6qq3[4:3],
{16},,,,,,,,,,,,,,2,2,
3,3,{8}4p4[8:3],{16},,,,,,,,,,3,4,
2,5,1,6,8,7b,{8}1b,,B4,C,B1,
{2}8qq8[16:3],1pp1[16:3],
{8}5v3>1[4:1]*v7>1[4:1],,,,,B8,E7,B5,
{2}4qq4[16:3],5pp5[16:3],
{8}4v2-8[16:3]*v6-8[16:3],,,,,1,2,3,
4v7[8:1],4h[4:1],,,5p1[8:1],5h[4:1],,,8<5[8:1],
8h[4:1],,,,2,3,4,
{32}6x,5xh[16:13],,,,,,,,,,,3x,4xh[32:35],,,,,,,,,,,,,,,6x,7xh[32:19],{4},,,{16},{8}E1,
C,
4-8[16:1],3,6<1[16:1],5,2-5[16:1],3,8-4[16:1],7,
5x-7[16:1],5x-3[16:1],5x-1[16:1],5x,{4}5x,{8}B6,B8,
{16}2/1>4[16:1],,,8,{8}1,7,6/5<8[16:1],4,5/3-7[16:1],2,
6-1[16:1],5,{16}3bx,4bx,{8}5bx,{64},,,,B8/D8,B7/A7,B6/D7,E6/A6,,,,,,,,,,,,,B1/D2,B2/A2,B3/D3,E4/A3,,,,,,,,,{8}5-1[16:1],
6,3-8[16:1],2,7-4[16:1],6,2v5[16:1],3,
4xv2[16:1],4xv6[16:1],4x-8[16:1],4x,{32}4x,,,,,,,B2,{4}E3,
{16}4,6,5,6,4,6,5,6,3,5,4,5,3,5,4,5,
3,3,5,5,7,7,1,1,{32}E2,E3,E4,E5,E6,E7,E8,E1,E2,E3,E4,E5,E6,E7,E8,E1,
{4}E2/Cf,{12}3,{24}3,4,,4,{12}5,{24}5,6,,6,{12}7,{24}7,8,,8,
{8}1,Cf,{12}B8/B7/E8,B1/E2/B2,B5/B4/E5,{8}6h[8:1],4h[8:3],{4}5h[4:1],
{16},,,,,,,3/4h[16:1],,,{8}4/3h[16:1],,,{4}1/8,
{12}B8,B7,B6,{8}4/3qq4[8:1],4/3,{4}4/3,
5b,{12}6,{24}6,5,,5,{12}4,{24}4,3,,3,{12}2,{24}2,1,,1,
{8}8,B7/E7/B6,{12}B1,E4,C,{8}5/4,4/2,{4}7/5h[4:1],
,E7,{8}7/1,7/1,{4}Ch[8:1],
{32}6x,5x,4x,3x,{96},,,,,,,,,,,,{12}B7,E3,B5,{8}4,4,{4}3b,
{8}3>8[8:1],{16}4,4,,5h[16:1],,,{8}6<1[8:1],{16}5,5,,4h[16:1],,,{8}2v5[16:1],
{16}1,1,,8h[16:1],,,{8}7v4[16:1],{16}8,8,,1h[16:1],,,{8}3v8[16:1],
{16}4,4,,5h[16:1],,,{8}6v1[16:1],{16}5,5,,4h[16:1],,,{8}3p7[8:1],
{16}4,4,,5h[16:1],,,{8}6q2[8:1],{16}5,5,,4h[16:1],,,{4}3h[4:1],
{8}4h[8:1],5h[8:1],6h[8:1],{16}7,7h[16:3],,8,{8}8h[4:1],
1-5[16:1],1,Cf,7,7,{16}6,5,,5,{8}4,
4h[16:1],3h[16:1],2h[16:1],1,{16}1,8,,8,{8}7,{16}7,8,
,8,{8}1,{16}2,3,,3,{4}4b/E4f/B3,{8}B7/B8/B1/B2/B3/B6/B5/B4/Cf,{16}A3,D4,
{8}A4,5,5,{16}7,6,{8}5,4,4,{16}3,4,
{8}5,{128}5,6,,,,,,,,,,,,,,,{8}4/5,{128}4,3,,,,,,,,,,,,,,,{8}5/4,{128}5,6,,,,,,,,,,,,,,,6,5,,,,,,,,,,,,,,,{16}5,4,
{8}3,4,4,{16}7,6,{8}5,6,6,{16}2,3,
4/B5,B6,B7,B8,B1,B2,B3,B4,{32}E6,E7,E8,E1,E2,E3,E4,E5,E6,E7,E8,E1,{16}1x,2x,
{8}3qq1-4[4:1],{16}7,7,,,6,7,{8}8q6-1[4:1],{16}5,5,,,4,3,
{4}2h[16:3],{16}1,8,1,7,1,6,1,5,{32}1,2,{16}3h[32:1],{32}5,6,{16}7h[32:1],
{8}4v1-3[4:1],{16}4,4,,,{8}8xh[16:1],{16}7-1v6[4:1],6x,{8}5x,,3,
3,{16}B7,B6,,B3,B4,6,{8}5,4/3,5/4,6/5,
7-5[8:1],{16}5q1[8:1],5,,4,{8}4,3-5[8:1],{16}5p1[8:1],5,,6,{8}6,
7>1p5[4:1],{16}5,5,,4,{8}4,3>1q5[4:1],{16}5,5,,6,{8}6,
7>2[8:1],{16}6,6,,3,4,5,,3x,,5x,,,3,4,
{8}5,{16}6,6,7,7,8,8,{32}1,2,3,4,5,6,7,8,A1,A2,A3,A4,A5,A6,A7,A8,
{8}1v6[8:1],8,1v4[8:1],2,1v6[8:1],8,1,2,
3-8[8:1],6,3-5[8:1],6,3-8[8:1],6,3,6,
5>2[8:1],6,7/5,8,1<6[8:1],2,3/1,4,
5>2[0.2308##0.2308],5,6<1[0.2308##0.2308],6,2-5[0.2308##0.2308],2,8-5[0.2308##0.2308],8,
4>1[8:1],4,4<7[8:1],4,4>1[16:1],4<7[16:1],4,4,
8-3[8:1],8,8-5[8:1],8,8-4[16:1],8-6[16:1],8,8,
5v8[8:1],4,5/3,2,1v4[8:1],8,1/7,6,
{2}5bh[4:1],{8}5/4,4/3,3/2,1/8,
7<3[0.2308##0.2308],3>7[0.2308##0.2308],7<3[0.2308##0.2308],3>7[0.2308##0.2308],7<3[0.2308##0.2308],3>7[0.2308##0.2308],7,3,
{4}4h[2:7],{64}B5,E5,{4},{16},,,{32},{64}B5,E5,{4},{16},,,{32},{64}B5,
E5,{4},{16},,,{32},{64}B5,E5,{4},{16},,,{32},{64}B5,
E5,{4},{16},,,{32},{64}B5,E5,{4},{16},,,{32},{64}B5,
E5,{4},{16},{32},{8}1b,{16},1b,,,{4}4h[4:1],
{64}B5,E5,,,,,,,,,,,,,,,{4}4h[4:1],{64}B5,E5,,,,,,,,,,,,,,,{4}5h[4:1],
{64}B4,E5,,,,,,,,,,,,,,,{4}5h[4:1],{64}B4,E5,,,,,,,,,,,,,,,{16}3,
5,3,5,4,6,4,6,5,7,5,7,1,8,1,8,
2,4,3,5,4,6,5,7,4,5,4,5,3,6,3,6,
{8}4-8[16:1],3,5-1[16:1],6,2-5[16:1],3,8V64[16:1],7,
3x-6[16:1],3xV51[8:1],3x-8[16:1],3x,{4}3x,{8}E8,B6,
5v2[16:1],{16}6,6,{8}5,7,8v5[16:1],{16}1,1,{8}8,2,
3pp1[8:1],{16}6,6,{8}3,7,,1b/2b,{16},7b/8b,,,{8}1-5[16:1],
2,7-4[16:1],6,3v8[16:1],2,6,5,
8>4[0.2308##0.2308],4<8[0.2308##0.2308],8>4[0.2308##0.2308],4<8[0.2308##0.2308],8V64b[0.2308##0.2308],4V28[0.2308##0.2308],8V64[0.2308##0.2308],4V28[0.2308##0.2308],
8V64b[0.2308##0.2308]*<4b[0.2308##0.2308],,,3,2,1,8,7,
6h[4:1],Cf,3h[4:1],Cf,5h[4:1],Cf/B2/B3,3h[8:1],Cf/B7/B6,
8/2>5[16:1],3,2/7-4[16:1],8,7/1-5[16:1],2,1/8<5[16:1],7,
8/3-8[16:1],2,3/5-1[16:1],6,5/4v7[16:1],3,4/5,6,
7<4-6[16:3],{16}1,1,{8}7,8,1>5-3[16:3],{16}8,8,{8}1,7,
6-8[16:1],{16}4,4,{8}6,3,{64},,,,,,,,8b/1b,E8/E2,B7/B2/C,B6/B3,{16}B5/B4,{128},,,,,,,,8b/1b,D2/D8,A2/A7,D3/D7,A3/A6,D4/D6,A4/A5,D5,,,,,,,,,,,,,,,,,{8}3V51[8:1],
1>4-2[8:1],3,8,6V48b[8:1],8<5-7b[8:1],6,1,
3-5-2[8:1],5,2-6[0.2308##0.2308],6-1-7[0.2308##0.2308],{2}7>7b[0.2308##0.4615],
{32}1x,2x,{16}3xh[32:1],{32}7x,6x,{16}5xh[32:1],{32}1x,2x,{16}3xh[32:1],{32}7x,6x,{16}5xh[32:1],{32}2x,3x,{16}4xh[32:1],{32}8x,7x,{16}6xh[32:1],{32}2x,3x,{16}4xh[32:1],{32}8x,7x,{16}6xh[32:1],
{24}4,5,4,5,4,5,3,6,3,6,3,6,2,7,2,7,2,7,1,8,1,8,1,8,
{1}1b/C,
E
