&title=Cocho Cocho
&artist=鬱P
&first=0.8
&des=Aza
&lv_5=14
&inote_5=(170)
{16}4/5,,3,4,3,4,2h[8:1],,4,3,4,3,5h[8:1],,,,4/5,,6,5,6,5,7h[8:1],,5,6,5,6,4x,,4x,,,,2,1,2,1,3h[8:1],,1,2,1,2,8h[8:1],,,,1/8,,7,8,7,8,6h[8:1],,{8}1-5[8:1],1,7x,7x,4/6,{16}6,5,6,5,7,,6,5,6,5,7,,4/5,,4/5,,3,4,3,4,2,,3,4,3,4,{8}2,1/8,2/7,3/6,4/5,7/8,1/6,2/5,3/4-8-6-3[2:1],2/5h[2:1],,,,,,{16}7,1,{4}4-8[8:1],
{16}2/4b,,,1h[8:1],,,5h[8:1]/7,,,6h[8:1]/5,,,6h[8:1]/3,,,6h[8:1]/1,,,6h[8:1]/7,,,6h[8:1]/8,,,2,1,,7,8,,5/6,,7/5,,,8h[8:1]/1,,,4h[8:1]/2,,,3h[8:1]/4,,,3h[8:1]/6,,,3h[8:1]/8,,,3h[8:1]/2,,,3h[8:1]/1,,,2,1,,7,8,,5/6,,3,4b,,6,5b,,1b/8b,,,7h[8:1]/8,,,7h[8:1]/2,,,7h[8:1]/4,,,7h[8:1]/6,,,7h[8:1]/5,,,3,4,,6,5,,7/8,,7/1,,,5/6h[8:1],,,2h[8:1]/4,,,7h[8:1]/8,,,7h[8:1]/2,,,7h[8:1]/4,,,7h[8:1]/6,,,7h[8:1]/5,,,3,4,,6,5,,1bx/8bx,,
{4}2bx/7bx-4[8:1],7/3,{16}6h[16:3]/2,,,5h[16:3],,,7,,{4}2-5[8:1]/8,2/6,{16}4/7,,6,5,,5,6,,{4}4/8-4[8:1],3/8,{16}2h[16:3]/6,,,1h[16:3],,,3,,{4}4-2[8:1]*-8[8:1]/8,4<2[8:3],{8}1,2,3,4,
{8}5-1[8:1],5,6V47[4:1],6,8,1,2,2,{16}3/8,,2,1,,1,2,,3h[8:1],,8,3h[8:1],,6,3h[8:1],,{8}4-8[8:1],4,3V52[4:1],3,1,8,7,7,{16}1/6,,8,7,,7,8,,{4}6<1[8:1]/1>4[8:1],6/1s5[8:1]*v7[8:1],
{4},A2/E3f/A3/B2/B3,{16}7,7,8>3[8:1],,,,6,,7,7,8V24[8:1],,,,6,,{4}7qq5[8:1],7/8z4[8:1]*v2[8:1],,A7/E7f/A6/B7/B6,{16}2,2,1<6[8:1],,,,3,,2,2,1V75[8:1],,,,3,,{4}2pp4[8:1],2/1<5[8:1],
{2}1b/3h[1:3],E2,E1,E8,E7,E6,{4}E5,2q5[8:3],,,{16},,6,5,6,5,7,,6,5,6,5,{4}7,{16}2/6,,3,4,3,4,2,,3,4,3,4,{8}2x,2x,1/8,1/8,2/7,2/7,3/6,3/6,4/5,4/5,6/4,7/4,8-5^4[8:1]/4,4>8b[8:1]/1,{2},
{4}2v8[8:1]/6,2^3V57b[4:1]/7,2b,{8}1,8,{16}7h[8:1]/1,,5,6h[8:1],,4,5h[8:1],,{8}3-1[8:1],3,6V48[4:1],,3/6b,,2,2,1/3h[8:1],{16}8,2h[8:1],,7,{8}1>4[8:1],7/8
,1/6,7b,8<5[8:1],1/2,3/8,{4}2b,3/7qq5[8:1],1pp3>7b[4:1]/7,1b,{8}6,5,{16}4h[8:1]/2,,3,5h[8:1],,4,6h[8:1],,{8}5-3[8:1],5,8V62[4:1],,2/8b,,3,3,{16}4/8h[8:1],,3,7h[8:1],,2,6h[8:1],,{8}1-5[8:1],4,8b,7,2/6,{16}7,4,6,5,8,3,
{8}1b-5[8:1],1,2V83[4:1],2,4,5,6-1[8:1],6,4-8[8:1],4,7-4[8:1],7,1,3,2-5[8:1]/8,,{16}2/8,7,{8}6-4[8:1],,8,2b,{16}8-4[8:1],7,{8}6-1[8:1],8,6b,3,5,7/3,3/7,{16}2,1,3,8,4,7,{8}5b-1[8:1],5,6V47[4:1],6,8,1,2-6[8:1],2,8b,,4,2/6-1[8:1],1,2/6,3-5[8:1],,3b/1-6[8:1],,1/3-5[8:1],2,3/7-4[8:1],,1-3[8:1],8,1/7,7,4/8-5^4b[8:1],4>8[4:1]/8,{2},
{16}5hx[8:1]/6hx[8:1],,,2hx[8:1]/4hx[8:1],,,1x/8x,,7hx[8:1]/8hx[8:1],,,1hx[8:1]/3hx[8:1],,,4x/5x,,{16}6x,7x,8x,1x,2x,3x,4x/8x,1x/5x,2x/6x,3x/7x,4x>8[4:1]/8x-5^4[4:1],1x/5x,{2},
{12}6bx/7bx,6bx/7bx,6bx/7bx,6bx/7bx,6bx/7bx,6bx/7bx,5bx/8bx,,3b,4b,,C,6b,5b,7b,{6}4b,3b/2b,1b/8b,6b/7b,{12}3b,4b,2b,C,1b,,{24}7b,6b,{12}5b,,3b,4b,2b,5b,{24}1bx,2bx,3bx,4bx,5bx,6bx,{12}7bx,,8b,{4}8b-5^4[8:1]*>4[8:1],,
{12}3hbx[24:1]/2hbx[24:1],3hbx[24:1]/2hbx[24:1],3hbx[24:1]/2hbx[24:1],3hbx[24:1]/2hbx[24:1],3hbx[24:1]/2hbx[24:1],3hbx[24:1]/2hbx[24:1],4hbx[24:1]/1hbx[24:1],,6hb[24:1],5hb[24:1],,Ch[24:1],3hb[24:1],4hb[24:1],2hb[24:1],{6}5hb[24:1],6hb[24:1]/7hb[24:1],8hb[24:1]/1hb[24:1],3hb[24:1]/2hb[24:1],{12}6hb[24:1],5hb[24:1],7hb[24:1],Ch[24:1],8hb[24:1],,{24}2b,3b,{12}4b,,6hb[24:1],5hb[24:1],7hb[24:1],4hb[24:1],{24}8bx,7bx,6bx,5bx,4bx,3bx,{2}2bx,
{4}7/8>5[2:1],,{6},6,6,4h[24:1]/6pp1[2:1],3h[24:1],2h[24:1],{12}3,3,,4,4,,,,8,5,7h[12:1],,1,4,2h[12:1],,7,1,6h[12:1],,,{24}2x<4[8:3],D3,A3,D4,A4,D5,{2}2b,{12}3b,3b,3b,{24}2bx/4x,1bx,8bx,7bx,6bx,5bx,{6}4bx,7h[24:1],7h[24:1],6qq3[2:1],8h[24:1],1h[24:1],{12}2,2,,1,1,,,,{12}6h[12:1]/1,1,{6}6h[12:1]/2,6h[12:1]/3,6h[12:1]/4,6h[12:1]/5,{4}6h[12:1]/7>5[2:1],,,A8,1<6[8:1],1b-5qq5-7[2:1]/E3/B3f/E4,{8},,,2,{16}2,,,3,,,4/8,,{4}5-1[8:1]/7-5[8:1],5/7,8>3b[8:1],8b-4pp4-2b[2:1]/E7/B6f/E6,{8},,,7,{16}7,,,6,,,5/1,,{4}4-8[8:1]/2-4[8:1],4/2,
{1}1b>8[2:7],,,,{8}1,1,8,8,2,2,7,7,3,3,6,6,4,4,5,5,{12}3,4,2,6,5,7,4,5,3,6,2,5,3,3,4,4,5,5,6,6,7,7,8,8,{16},,2,1,2,1,3h[8:1],,1,2,1,2,8h[8:1],,,,1,,7,8,7,8,6,,8,7,8,7,1x,,1x,,{8}2/8,2/8,3/7,3/7,4/6,4/6,5/3,5/3,4/5,5/3,5-8^1[8:1]/2,5/1>5[8:1],{2},{12}2,{24}6,5,4,,6,5,4,,6,5,{12}4,7,5,{4}6<4[2:1],
{4}5b,5,5,5/4>6[2:1],5,5,5,5/6<4[2:1],5,5,5,5/4>6[2:1],5,5,5,{16}5,4,3h[16:1],,{4}4V61[4:1],2-5[8:1]/4,2,8-3[8:1],5V38[4:1]/8,7-4[8:1]/5,7,1h[4:1],{8}5,5,2/6,2/6,3/7,3/7,4/8,4/8,1/2,5/6,1b/8b,,8/7,4/3,8b/1b,,
{4}7v1[8:1]/3,7^6V42b[4:1]/2,7b,{8}8,1,{16}2h[8:1]/8,,4,3h[8:1],,5,4h[8:1],,{8}6-8[8:1],6,3V51[4:1],,6/3b,,7,7,8/6h[8:1],{16}1,7h[8:1],,2,{8}8<5b[8:1],2/1
,8/3,2b,1>4b[8:1],8/7,6/1,{4}7b,6/2pp4[8:1],8qq6<2b[4:1]/2,8b,{8}3,4,{16}5h[8:1]/7,,6,4h[8:1],,5,3h[8:1],,{8}4-6[8:1],4,1V37[4:1],,7/1b,,6,6,{16}5/1h[8:1],,6,2h[8:1],,7,3h[8:1],,{8}8-4[8:1],5,1b,2,7/3,{16}2,5,3,4,1,6,
{8}8b-4[8:1],8,7V16b[4:1],7,5,4,3-8[8:1],3,5-1b[8:1],5,2-5[8:1],2,8,6,7-4[8:1]/1,,{16}7b/1,2,{8}3-5[8:1],,1,7b,{16}1-5b[8:1],2,{8}3-8[8:1],1,3b,6,4,2/6,6/2,{16}7,8,6,1,5,2,{8}4b-8[8:1],4,3V52b[4:1],3,1,8,7-3[8:1],7,1b,,5,7/3-8[8:1],8,7/3,6-4[8:1],,6b/8-3[8:1],,8/6-4b[8:1],7,6/2-5[8:1],,8-6[8:1]/2,1,8b/2,2,5>1[8:1]/1,5/1^8-5b[8:1],{4},{8}3-5[8:1],,3b/1-6[8:1],,1/3-5b[8:1],2,3/7-4[8:1],,1-3[8:1]/7,8,1b/7,7,4^5-8[8:1]/8,4/8>4b[8:1],{4},{16}8x,7,6,5,{8}4-8[8:1]/2-5[8:1],4/2,2b/4b,,1-6[8:1]/7-3[8:1],1/7,1b/7b,,2/6,3/7,4>8[4:1]/8-5^4[4:1],1/5,{2},
{16}1b,8,2,7,1,8,2,7,1,8,3,6,1,8,3,6,{12}2x,7x,4x,5x-8^1[4:1]*>1[4:1],3x,6x,{2},
{16}7b,8,7,8,7,1,7,2,7,3,7,4,7,5,7,6,{2}7>6[2:1],Cf,{16}2b,1,2,1,2,8,2,7,2,6,2,5,2,4,2,3,{6}2b-7[8:1],8b,6b,{1},{16},,2,8,5b,
