&title=不可思議のカルテ
&artist=児玉雨子、カワイヒデヒロ、瀬戸麻沙美、東山 奈央、種﨑敦美、内田真礼、久保ユリカ、水瀬 いのり。
&first=0
&des=千原葵
&lv_5=13
&inote_1=
&inote_5=(96)
{8},5<2[8:13],,,,,,3xh[4:12],,,,,,,,,,,,6h[8:12],,,,,,,,,,,,,
{8},4>7[8:11],,,,E3/A3/B3,,,,B6/E6/A6,,,,A4/E4/B4,,
{8},,3^6[32:6]/7,,1,,3^8[32:6]/7,,4,,7,,6bh[24:23],,,,
{12},{8},,,4x>8[8:5],,6h[16:3],,6h[16:3],,6h[16:3],
{8},7x<3[8:5],,2h[16:3],,2h[16:3],,2h[16:3],
{8},1x<5[8:5],,3h[16:3],,3h[16:3],,3h[16:3],
{8},2xpp5[8:5],,8h[16:3],,8h[16:3],,7h[16:3],
{8},6xpp1[8:5],,4h[16:3],,4h[16:3],,3h[16:3],
{8},3x-7-1-4[8:5],,4h[16:3],,5h[16:3],,6h[16:3],
{8},6x-2-8-5[8:5],,5h[16:3],,4h[16:3],,3h[16:3],,3h[16:3],,
{16}8x,7x,6x,5x,4x,3x,2x,1x,8x,7x,6x,5x,4x/2xb-8v5[8:5],,
{8},5h[16:3],,6h[16:3],,6h[16:3],
{8},7x-1v4[8:5],,4h[16:3],,3h[16:3],,3h[16:3],
{8},2x-7-5^4v3[8:5],,1h[16:3],,1h[16:3],,8h[16:3],
{8},7x-2-4^5v6[8:5],,8h[16:3],,8h[16:3],,1h[16:3],
{8},2x^8v3^4[8:5],,5h[16:3],,6h[16:3],,6h[16:3],
{8},7x^1v6^5[8:5],,4h[16:3],,3h[16:3],,3h[16:3],
{8},2-5[8:1],,12,,7-4[8:1],,87,,6/1^4[8:1],,1^6[8:1],,1>4[8:1],,1/4w8[16:1]b,,B1/B2/Cf/B7/B6,,,
{8},,,4b-1[8:1]/6,5,4/6<1[8:1],,3-8[8:1]/6,4,3/5<8[8:1],
{8},5/4-1[8:1],3,6/4>6[8:3],,,
{8},,,8b-5[8:1]/2,1,8/2>5[8:1],,7-4[8:1]/2,8,7/1>4[8:1],
{8},1/8qq4[8:3],,3h[12:6],,,
{8},,,6<2v4[8:3]b,57,6,,E1/B8/E8,,53,,8^5pp4[12:7],,3-1[48#24:1],,2,,3,
{8},1^6[8:1]/3,2,1/3-6[8:1],,3/8^5[8:1],7,8^3[8:1],,8w4[8:5],,,,,,,,
{24},,,,,,1,,1,8,,,{8}2h[64:1]`7xh[64:1],2xh[64:1]`7h[64:1],
{24}4,,4,5,,,{8}3xh[64:1]`6h[64:1],3h[64:1]`6xh[64:1],
{24}3,,3,4,,,{8}2h[64:1]`5xh[64:1],2xh[64:1]`5h[64:1],
{24}6,,6,5,,,{8}7xh[64:1]`4h[64:1],7h[64:1]`4xh[64:1],
{24}2,,2,1,,,{8}3h[64:1]`8xh[64:1],3xh[64:1]`8h[64:1],
{24}7,,7,8,,,{8}6xh[64:1]`1h[64:1],6h[64:1]`1xh[64:1],
{24}5,,5,4,,,
{16}1x,2,3x,4,5x,6,7x,8,1x,2,3x,4,5xs1[8:6]/1xbs5[8:6],,
{8},,,,,,,,,1x/8,1/8x,{24}7,,7,3,,,2,,2,6,,,4bs8q2[8:5]/5b,,,
{8},6h[16:3],,6h[16:3],,6h[16:3],
{8},5xs1p7[8:5]/3,,3h[16:3],,3h[16:3],,3h[16:3],
{8},3x^2-8^7pp2[8:5]/5,,5h[16:3],,5h[16:3],,6h[16:3],
{8},7x^6-4^3pp6[8:5]/1,,1h[16:3],,1h[16:3],,2h[16:3],
{8},3x-5v2v8[8:5]/6,,5h[16:3],,6h[16:3],,6h[16:3],
{8},6x-4v7v1[8:5]/3,,4h[16:3],,3h[16:3],,3h[16:3],
{8},1xpp3qq8[8:5]/7,,{16}6,,,6,5,,,5,6,,,6,
{8}5xpp7qq4[8:5]/2,,{16}2,,,2,1,,,1,2,,,2,
{8}3x>7v5[8:5]/5,,{16}6,,,6,5,,,5,6,,,6,
{8}6x<2v4[8:5]/4,,{16}3,,,3,4,,,4,3,,,3,
{8}4xv1^4[8:5]/7,,{16}6h[128:1],,,6h[128:1],5h[128:1],,,5h[128:1],6h[128:1],,,6h[128:1],
{8}5xv8^5[8:5]/2,,{16}3h[128:1],,,3h[128:1],4h[128:1],,,4h[128:1],3h[128:1],,,3h[128:1],
{8}4^2[8:1],,4^6[8:1],,4-1[8:1],,4-7[8:1],,4^1[8:1],,4^7[8:1]*-6[8:1],,4^1[8:1]*-2[8:1],,4w8[16:1]b,,B5/B6/Cf/B3/B2/B1/B8/B7/E8/E1,,,
{8},,,5b<8[8:1]/3,4,5/3-8[8:1],,6<1[8:1]/3,B5`E5,6/4-1[8:1],
{8},4/5<8[8:1],6,3/5v7>3[8:3],,,
{8},,,1b>4[8:1]/7,8,1/7-4[8:1],,2>5[8:1]/7,E1`B1/B8,2/8-5[8:1],
{8},8/1pp5[8:3],,6h[12:6],,,
{8},,,3>5[8:3]b,42,3,,B1`E1/E2,,46,,1^4qq5[12:7],,6-8[48#24:1],,7,,6,
{8},8^3[8:1]/6,7,8/6-3[8:1],,6/1-4[8:1],2,1-6[8:1]/7,,3/1v6^1[8:3]*v4^1[8:3],,,,,,E3/E7f`B3/B7`B4/B8`E5/E1`A5/A1,
{24},,,4bv1[8:1]/6,,5,,3/B5,,4/6b<1[8:1],,,,,,3bv8[8:1]/6,,4,,4/B7,,3/5b<8[8:1],,,
{24},,,5/4bv1[8:1],,3,,3/B5,,6/4b>6v1[8:3]b,,,,,,,,,,,,
{24},,,,,,8bv5[8:1]/2,,1,,1/B7/E7,,8/2b>5[8:1],,,,,,7bv4[8:1]/2,,8,,8/B2/E3,,7/1b>4[8:1],,,
{24},,,1/8bqq4v1[8:3]b,,,,,,3h[12:6]`Cf,,,,,,,,,,,,D1`A8`D8`A7`D7,
{24},,,,,6<2v4[8:3]b,,5,,57,,6,,,,,,E1`B8`E8,,,,,,53,,,,,,8^5pp4s8[12:7],,,,,,3^1[48#24:1],,,,,,2,,,,,,3,,,
{24},,,4bv1[8:1]/6,,5,,5/B3/E3/B2,,4/6b<1[8:1],,,,,,3bv8[8:1]/6,,4,,4/B6/E6/E7,,3/5b<8[8:1],,,
{24},,,5/3b>7[8:2],,,,,,B3/A3f/E3/7b>3[8:3],,,,,,Ch[12:3],,,,,,
{24}B5/B6/B7/E7/E6,,,,,,4b^7[8:1]/2,,3,,3/A5/E6/D66,,4/2b-7[8:1],,,,,,2/5b^8[8:1],,6,,6/D4/A4/E4/B4,,5b^2[8:1],,,,,,5bw1[8:5],,,,,,,,,,,,,,,,,,,,,,,,,,E
&inote_6=
