&title=白鸟过河滩
&artist=ilem
&first=-0.05
&clock_count=1
&lv_5=14
&des_5=キャップ
&inote_5=
(110){4},{8},,,,,,,6h[8:3],
{4},{8}1-4[8:1],7b,{16}6,5,{4},{8}4,
5,6-3[8:1],,2-7[8:1],,,,4-1[8:1],
,,,7b,7/4,{16}3,4,
{2},{16}8,7,{8}6,6/3,{24}8,7,6,
2,3,4,5-1[8:1],,,,,,{8}5,{4}6v3[8:1],{16}6,5,{8}4,
,8-5[8:1],,8,{4}2v7[8:1],{16}2,1,{8}8,
,7-3[8:1],,7,{4}2q4[8:1],2,
{8},2-6[8:1],,2,{4}7p5[8:1],7b/2b,
,{8}1-6[8:1],6-1[8:1],1-4[8:1],4-1[8:1],{4},{8}7,
4/5,1-5[8:1],7-3[8:1],1,7,{4},{8}4qq2[8:1],
8qq6[8:1],{4}4b,,7/2,
{8},1-4[8:1],8,8,7-2[8:1],5,5,3-6[8:1],
{4}2,{8}8-3[8:1],3-8[8:1],8-5[8:1],5-8[8:1],{2},{8}4v1[8:1],
5<8[8:1],{2}4,
{8}3v8[8:1]*q7[8:1],2/4,{4}3b,7/2,{8}5/1>5[8:1],5<1[8:1],
{2}1-5[8:1],{4}7b/2b,{24}8,1,8,1,{12},{4}7/2,
{8}7-4[8:1]/2-5[8:1],4-7[8:1]/5-2[8:1],7/2,{4},{8}4qq3[8:1]/5pp6[8:1],
,,,5-1[8:1],{4},{8}2-6[8:1],6-2[8:1],
2s6[8:1],7b,,7b,{4},{8}7/2,7/2,
,6,7/2,6/3,3,6/3,{24}8/7,1,2,3-7[8:1],{12},{8}6b,
{4},{8}8-6[8:1],1-5[8:1],8-4[8:1],{4}1-3[8:1],
,7/1,5/3,{8}7<4[8:1],8p3[8:1],
7,8,{16},6b,{8},,,{4}7/2,
5/4,{8}2h,7h,,{64}8b/1b,7/2,6/3,5/4,{16},{8}2>5[8:1],5-2[8:1],
2-7[8:1],7>2[8:1],{4}6-2[8:1],{2}6-3[8:1],
{8},5/4h[8:1],5h[8:1],3h[8:1],6h[8:1],3,8,8-4[8:1],
8,8-5[8:1]*-3[8:1],2,8<5[8:1],,8>3[8:1],2,8w4[8:1],
6,8b,,6,3,8<5[8:1],5-8[8:1],8-3[8:1],
3>8[8:1],4-8[8:1],{2},{8}4-2[8:1],4-8[8:1],
{4},{8}5-7[8:1],5,{4}5-1[8:1],5-3[8:1],
5<5[8:3],{2},{8}5/4,7/2,
8/1,7/2,5/4,6/3,7/2,1>4[8:1],4-1[8:1],1<6[8:1],
6-1[8:1],5-8[8:1],,,,1q4[8:3],7/2,5q8[8:3],
6,{2},{8}8<5[8:1]/5>2[8:1],1,8-3[8:1]/5-8[8:1],
,8<5[8:1],,8q4[8:1]/4q8[8:1],,8<5[8:1]/4>1[8:1],,4q8[8:1]/8q4[8:1],
,,,,,8/1-5[8:1],2,1/8-4[8:1],
7,8b/1b,,5b/4b,{4}8,{8}3-6[8:1],6-3[8:1],
{4}3,7h[4:1],{8}8w4[8:1],4w8[8:1],,,,6b/2b,
{16}5,4,{8}5,{4}7b/3b,{16}8,1,{8}8,
,8b/1b,{4},5b/4b,{16}5,4,{8}5,
,7/2,7-2[8:1],3-6[8:1],7>1[8:1],3<5[8:1],7-3[8:1],3-7[8:1],
{4},1b,,{8}3-7[16:3],6-2[16:3],
3b,6b,{4}1h[4:1],,{8}5/4,{16}1,8,
{8}7,8-6[8:1],1-5[8:1],2-4[8:1],{2},{4}6b/3b,
{8}1-7[8:1],1-6[8:1],1-5[8:1],1-4[8:1],{4}1-3[8:1],
{8},7,6b,{16}7,5,{4}7,{8}1-6[16:1],6-3[16:1],
,,,{16}1,2,3,4,{8}8b/7b,{4}8/7,
{8},2-6[8:1],{32}7,8,1,2,{8},,,7-3[8:1],{32}2,1,8,7,
{4},{8}4>2[16:1],5<7[16:1],4-7[16:1],5-2[16:1],{4},{8}8-5[8:1]/1-4[8:1],
{2},{8}7/4h[8:1],2,1/8p4[8:1],
7,8/3v1[8:1],2,3/5>1[8:1],6,5/7,6,7,
7h[8:1],1h[8:1],{4}5<8[8:1],{8}5,3<6[8:1],,3,
{4}8>3[8:1],{8}8/7-5[8:1],5-2[8:1],,1,7,8b/1b,
{4}6b/3b,{16}5,4,{8}5,7/2,5>2[8:1],{4}4<7[8:1],
{8},8b<4[4:1]*p4[4:1],,8,{4},7/2,
{16}8,1,2,3,{8}4,8/7,,{24}4,3,2,{8}1,6/5,
,5-8[8:1]/4-1[8:1],,5b/4b,,2>5[8:1],5-2[8:1],2-7[8:1],
7>2[8:1],6-2[8:1],,6-3[8:1],{4},{8}2-6[8:1],2,
1-5[8:1],1,8-4[8:1],8,{4},{8}4,8-4[8:1],
6/2,8-5[8:1]*-3[8:1],8,8<5[8:1]*>3[8:1],,8V26[4:1]*V62[4:1],,8w4[8:1],
,,,,,2>5[8:1],5-2[8:1],2-7[8:1],
7>2[8:1],6-2[8:1],,6-3[8:1],{4},{8}8,7,
6z2[8:1],2,2z6[8:1],7,{4},6<2[4:1],
2v4[4:1],{8}4,6,8,1,2,3,
4,{16}4,5,3,7,5,4,2,8,{8}7-2[16:1]/1-7[16:1],{4}7<2[16:1]/3-6[16:1],
{8},8-4[8:1],{4}6-2[8:1],{8},4<2[8:1],4,2>7[8:1],
,2,,,,4-8[8:1],5-1[8:1],4>2[8:1],
5,4-7[8:1],,4-8[8:1]*-1[8:1],,4<6[8:1]*-7[8:1],,4>2[8:1]*-1[8:1],
,4,,,,8-4[8:1],7,6-2[8:1],
5,4-8[8:1],,5h[8:1],{4},{8}6<1[8:1],1-6[8:1],
6-3[8:1],3<6[8:1],{4}2-6[8:1],2-7[8:1],{8}2,3,
4,{4},{32}8b/4b,7/3,{16}6/2,{4},{32}1b/5b,6/2,{16}7/3,{4},{8}5b/4b,
5/4,{32}6,7,8,1,2,3,{16}4,{8}1-5[8:3],,1,
,7-3[8:3],,7,,8-4[8:3],,8,
,8-5[8:1],,5,,2>5[8:1],5-2[8:1],2-7[8:1],
7>2[8:1],6-2[8:1],,6-3[8:1],,6<1[8:1],,6-2[8:1]*-3[8:1],
,6,,1,8,3<6[8:1],,3>2[8:1]*>8[4:1]*>7[8:3]*>6[2:1]*p6[2:1],
{4},,,{8}4b,5b,
{4}4b,{8}7/2,6<2[8:1],{2}2v4[4:1],
{4},{16}8,1,1,2,{4}2,{16}7,6,6,5,
{4}5,{8}5,4,3,8-6[16:1]/1-5[16:1],8b/1b,8-4[16:1]/1-3[16:1],
8b/1b,1<5[8:1],,5>1[8:1],,1<5[8:1],,5V31[8:1],
,1-7[8:1],{4},5-8[16:1],{8}7b/5b,5qq8[8:1]*qq8[8:1],
5b,7b<3[8:1],,,,7-3[16:1],,8-4[8:1],
,1-5[16:3],,2-6[16:3],,3-7[2:1],3,4q8[2:1],
4,4,{2},{8}5v2[8:1]/4v2[8:1],7/2,
{4}4v7[8:1]/5v7[8:1],5/4,{8}3v1[8:1],7v5[8:1],3v2[8:1],7v6[8:1],
,,,7b/1b,{16}5,4,{8}5,{4}5b/3b,
{16}4,5,{8}4,,1b/2b,,2>5[8:1],5-2[8:1],2-7[8:1],
7>2[8:1],6-2[8:1],{2},{4}8-4[2.7273##0.2727],
{2},{4}1b/2b,8b/7b,
{1}8b/1b,
{8},2,,7,,{32}4,3,2,1,{8},{32}5,6,7,8,
{8},8v2[8:1]*v2[8:1],,,,,,,,8v5[8:1]*v5[8:1],
{4},,,{1}8-4[4:3]*p4[4:3]*q4[4:3]*-5[4:3]*-3[4:3]*w4[4:3],
E
