&title=燎火のフォルトゥナ
&artist=榊原ゆい/PCゲーム「真・恋姫†夢想-革命- 孫呉の血脈」OPテーマ
&first=0.60
&wholebpm=80~160
&demo_seek=60.4
&demo_len=27.3
&lv_5=14
&des_5=GANNETZ!
&inote_5=(80)
{16}8/1s5[16:8]*p4[16:8],,,27,
,,,,
,,,,
,,,,
{16}1/8z4[16:8]*q5[16:8],,,27,
,,,,
,,,,
,,,,
{16}4q5[16:3],,,5<4[16:5],,
,,7h[4:1],,
,,,,
,,,18,
{16},,27,,
36,,4h[4:1]/5h[4:1],,
,,,36,
,,,8/7<3[16:5],
{16}1,2,3,,
2,,1h[4:1],,
,,,78,
78,16,,1/2>6[16:5],
{16}8,7,6,,
7,,8h[4:1],,
,,,12,
12,83,,8p3[16:5],
{16}1q6[16:4],8,1,,
,,,,
,,,84,
73,26,,8h[16:3]/7h[16:3],
{16},,,,
,2h[8:3]/5h[8:3],,,
,,,,
,,,2,
{16},21,28,,
27,,7-4[16:1]*-2[16:1],,
,,,,
3,24,15,,
{16},86,7<7[16:6]*<6[64:3]*<5[64:6]*<4[64:9]*<3[64:12]*<2[64:15]*<1[64:18]*<8[64:21],,
,,,,
,,,,
,,,7,
{16},78,71,,
72,,83,,
,14,14,,
5-1[16:11],,6,,
{16},3,7,,
2,,8,,
,,,,
,,,
{16}
3p5[8:1],,5^8[8:1],,
8qq4[16:5]/3,,,,
5h,,,,
,5,6,7,
8h[16:3],,2,2v5[8:1],
,5V31[8:1]/6,,2/6h[8:1],
,,6V48[16:3],,
8,,64,,
2,2V84[16:3],,35,
,27,,5,
,6,7V15[16:3],7/4h[16:3],
6,,7,,
3h[4:1],,4,4,
,35,,1s5[16:4]/5,
,,,1b,
,,,,
7h[16:5],,1,1,
,5h[8:1],,3h[8:1],
,1V73[16:3],,7h[8:1],
,1,6,,
5h[16:5],,2,2,
,1h[8:1],,7qq4[4:1],
,4h[8:1],,7,
,,,3,
3h[16:3],,5,5h[8:1],
,1h[8:1],,7q2[4:1],
,3h[8:1],,7,
,4,,4q5[16:3],
4,,5,4,
,7,,7p6[16:3],
8h[8:1]/5h[16:4],,,7,
,,1b,,
27,45,,{64}1s5[160#4:1]/8z4[160#4:1],27,36,45,{16},1b/8b,,
(160){8},
{8}3-8[8:1]/5h[4:1],,3,7-4[8:1],
,7,,8^3[8:1],
,4^7[8:1],,1^4[8:1],,
,7h[8:1],,
84,,45,36,
,1w5[8:1],,
1b,
,,73,26,
15,84,{16}7,8,1,2,
{8}3/6,7,8,13,
,8p5[8:5],,8,
,2-5[8:1],,2,
,,5h[8:1]/4q1[4:1],,
6h[8:1],,7h[8:1],2,
,8q5[4:1],,8h[4:1],
,,85,84,
83,82,{16}3,4,5,6,
{8}7-4[8:1]/2h[4:1],,,1,
,2-5[8:1],,2/7-4[8:1],
,7/1-5[8:1],,1/8-4[8:1],
,8,1h[4:1],,
2h[4:1],,4h[8:1],5h[4:1],
,7h[8:1],8,16,
,4/5h[8:1],,6,
{16}8,1,2,3,
1,8,7,6,
{8}5b/2b,,34,3-7[8:1],
,1,,5,
,,2h[8:1]/6h[8:1],,
3h[8:1]/7h[8:1],,4h[8:1]/8h[8:1],,
6-2[8:1],,8,4,
,45,,73,
{16}4s8[8:3],5z1[8:2]*z1[8:2],3,6,45,,,,
{8},,{16}8/4pp7[8:7]*pp7[8:7],37,26,15,
{8}
4/8v3[8:1],,,,
3v8[8:1]*v8[8:1],,,,
1h[8:4],2,3,4,
5-8[8:1]*-2[8:1],46,5,,
7h[8:2],1,3,{24}4q1[8:1]/5^8[8:1],3,2,
1,,,{8}4>5[8:3]/5p4[8:3],,,
,,,,
{16}1,2,3,4,
8,7,6,5,
2,3,4,5,
8,5,8,4,
8,3,8,2,
8,1,7,1,
{8}
6-2[8:1],,1-5[8:1]*-5[8:1]/6,,
8w4[8:1]/1,,8b,,
{16}18,27,36,,{24}4,5,4,{8}3^1[8:1]/6v1[8:1],,6^8[8:1]/3v8[8:1],,6b/3b,
,1^4[8:1]*^6[8:1],,1qq5[8:3],
,1b/2b,,,
{16}
2,3,4,5,
8,7,6,5,
1,2,3,4,
51,6,7,8,
15,4,3,2,
1,8,3,7,
2,6,1,5,
2,3,4,5,
{8}
8,8v5[8:1]*v5[8:1],75,8v3[8:1],
1,8-4[8:1]*-4[8:1],,8pp4[8:3],
,,,,5-2[8:1]*-8[8:1],,5b,,
1q5[8:1],2,31,3,
3h[8:3],4,5,6h[8:5],
8,1,2,3,
{16}4,3,2,1,
3,2
,1,8,
3b,7,2,6,
1,5,4,8,
3,7,2,6,
1,5,8,4,
7>6[16:7]/3,8>7[16:7]*>7[16:7]/4,1>8[16:7]/5,2>1[16:7]*>1[16:7]/6,
7/3<2[16:7],,,,
7,8,1,2,
3,4,5,6,
{8}
7-3[8:7]/3,,,,
,,,,
2-6[8:7]*-6[8:7],,,,
,,,,
7-3[8:7],,,,
,,,,
{1}
1bv4[8:23]*v6[8:23],,,,E,
