&title=春擬き
&artist=やなぎなぎ
&first=0.945
&des=静
&lv_5=13
&inote_5=(174){4}
3h[1:1],,,,
4h[1:1],,,,
5<3[4:3],,,,
5<3[4:3]b,,,,
4x,,{16}3,5,3,5,{8}3,2b/6b,,
3h[8:1],B7,3h[8:1],B1,3h[8:1],B5,3h[8:1],7-1[8:1],
7,3-5[8:1],3,7,7,3,2b/6b,,
7h[8:1],B5,7h[8:1],B3,7h[8:1],B1,7h[8:1],3-5[8:1],
3,7-1[8:1],7,3,3,7,2b/6b,,
1h[8:1],B7,1h[8:1],B3,1h[8:1],B5,1h[8:1],8-6[8:1],
8,4-2[8:1],4,8,8,1,6bpp1qq8[8:8]/2bpp5qq4[8:8]b,,
,,,,,,,,
,,,8x/4x,8x-5[8:1]/4x-1[8:1]b,,8x/4bx,,
6,6,2,2,5h[4:1],,4-7[8:1]*q1[8:1],,
,,,2x/6x,2x-5[8:1]b/6x-1[8:1],,2bx/6x,,
8,8,4,4,5h[4:1],,3-6[8:1]*v2[8:1],,
,,,7x/3x,7x-4[8:1]/3x-8[8:1]b,,7x/3bx,,
1,1,5,5,3h[4:1],,8>4[32:5]*<4[32:5],,
,,,2x/6x,2x-7[8:1]b/6x-3[8:1],,2bx/6x,,
,,,,,,,,
,,,1x/8x,1x-4[8:1]b/8x-5[8:1],,1bx/8x,,
6,7,3,2,6h[4:1],,5pp7[8:1]*v4[8:1],,
,,,6x/5x,6x-1[8:1]/5x-2[8:1]b,,6x/5bx,,
3,4,7,6,3h[4:1],,1-5[8:1]*s5[8:1],,
,,,3x/4x,3x-8[8:1]b/4x-7[8:1],,3bx/4x,,
6,5,3,4,7h[4:1],,6p2[8:1]*v3[8:1],,
,,,4x/5x,5x-8[8:1]/4x-1[8:1]b,,4bx/5x,,
7,6,3,4,5h[4:1],,2p4[32:5]*p6[32:5],,
,,,{12}3x,4x,3x,6x,5x,6x,{8}
4b>6<4[2:3],,,,8^6<4[4:4],,6<4[4:3]b,,
4,,5,5,,,8^5[4:1],,
5-1^4[4:2],,,1,,,1x-5[4:1],,
5x^8-4^1[4:3],,,8x,,,,,
5<3>5[2:3],,,,1^3>5[4:4],,3>5[4:3]b,,
5,,4,4,,,,3,
3pp1-3[8:6],,4,4-1-3[8:3]b,,,,,
,,6h[4:1],,5h[4:1],,4-2[8:1]*-8[8:1],,
,,1h[4:1],,7<8[16:7],,5h[2:1],,
,,,,5-2[8:1]/6-8[8:1],,56,,
7x/3x,7,7,2x/6x,2,2,18,7,
6x/5x,6,6,3x/4x,3,3,28,7,{16}
4x,6,4,6,4,6,3x,5,3,5,2x-6[8:1],6,1x,7,2bxv3-5[2:1]*qq6[2:1]b,,{8}
,,,,,,,,
1-3[8:1],,1-5[8:1],,4-1[8:1]/1,,4-7[8:1],,
8-4[8:1]/4,,8-6[8:1],,5-2[8:1]/8,,5-8[8:1],,
1^4[8:1]/5,,1^6[8:1],,5-1[8:1]/1,,5b<4[2:1]b,,
,,,,,,2,1,
8h[4:1],,5,5-8[8:1],,7-5-8-4[8:3]b,,1bh[8:3],
,,,,5h[2:1]/B2/B3,,B6/B7,,
1-6[8:1],,8h[4:1],,5-2[8:1],,1,1x-5[8:1]b*-6[8:1],
,1bx,,8x-4[8:1]*-3[8:1]b,,8bx,,,
2-5[8:1],,2-7[8:1],,4-2[8:1]/2,,4-8[8:1],,
1-4[8:1]/4,,1-6[8:1],,5-1[8:1]/1,,5-7[8:1],,
8^3[8:1]/5,,8^5[8:1],,4-8[8:1]/8,,4b<4[8:5]*>4[8:5]b,,
,,,,,,,,
2/B6/E7,2,2/B8/E1,2,2/B5/E5,,7/B3/E3,7,
7/B1/E1,7,7-3[8:1]/B4/E5,,7/1-5[8:1],,14,,
6xh[8:1],{16}4x,5x,{8}4x,7xh[8:1],{16}4x,5x,{8}4x,8xh[8:1],{16}4x,5x,
4x,3x,2x,1x,5x,6x,7x,8x,E4,B3,B2,E2,E6,B6,B7,E8,{8}
3b-1[8:1],,3-7[8:1],,8-3[8:1]/3,,8-5[8:1],,
4^1[8:1]/8,,4^7[8:1],,8-4[8:1]/4,,8,,
6-3[8:1],,2,2h[4:1],,4-8[8:1]b,,3bh[8:3],
,,7V53[2:1],,5V31V75-3[4:5]b,,4xV28V64[8:7],,
,,,,,,,,
E
