&title=隅田川夏恋歌
&artist=seiya-murai feat.ALT
&first=0
&des=转谱这一块
&lv_4=9.8
&inote_3=(180){4},
E
&inote_4=(180){4},{8},,,,,,E8/E4,
,,C,,,{4}E6/E2,
{8}3h[4:1]/E8f/B7/B8,,,7h[4:1]/B4/B3/E4f,,,8b,1b,
7,{16},,,,1,7,{8}4,,,6/5,
2,{16}7,3,{8}5,2,,7,3,8,
4,{16},,,,4,7,{8}1,{16},,,,B8,B2,
{8}B4,{16}7,1,{8}4,B7,{4}B5,{8}6,8,
2,{16},,,,1,7,{8}4,,,5/6,
2,{16}7,3,{8}5,2,,7,3,8,
4,{16},,,,4,7,{8}1,{16},,,,B8,B2,
{8}B4,{16}7,1,{8}4,B7,{4}B5,{8}6,8,
{1}5h[1:1],
{8},E4/E8,B3/B7,B2/B6,E2/E6,B1/B5,B8/B4,B7/B3,
B6/B2,{16},,,,E8/E2,E7/E3,{2}E6/E4,
{8},,,,4/8,4/8,7/3,7/3,
{1}6/2,
{8},7,2,6,3,{16}8,1,{8}8,3,
{4}6/5,{8}2/1,7,{4}1/2,{8}7/8,5,
{16}5,6,{8}4,3/4,3/2,{4}2/1,{8}8,1,
{4}7h[4:1],{8}C,{16}1,7,{4}4h[4:1],{8}C,6/5,
2,{16}7,3,{8}B5/C,2,,7,3/C,8,
{4}4,{8}C,{16}4,7,{4}1h[4:1],{8}C,{16}B8,B2,
{8}B4,{16}7,1,{8}C/B4,B7,{4}B5,{8}6/C,8/B3,
{4}2,{8}C,{16}1,7,{4}4,{8}C,5/6,
2,{16}7,3,{8}C/B5,2,,7,3/C,8,
{4}4,{8}C,{16}4,7,{4}1,{8}C,{16}B8,B2,
{8}B4,{16}7,1,{8}C/B4,B7,{4}B5,{8}6/C,8/B3,
{4}5h[1:1],C,,C,
{8},4/E8,3/B7,2/B6,1/E6,8/B5,7/B4,6/B3,
5/B2,{16},,,,2/7,6/3,{4}5/4h[4:3],C,
,C,{8}1/5,2/6,B2/B6,B7/B3,
{4}4/8h[1:1],C,,C,
{8},7,2/C,6,3,{16}8,1,{8}C/B8,3,
{4}B3/B4f,{8}E8,B7/B8,{4}Cf,{8}C,B4/B3,
E4f,B1,C,B5,{4}A5f,{8}8/1,E1,
1/8,B8/B1,2/7,B7/B2,6/3,B6/B3,4/5,E5,
7,8,1,2,7,{16}B7,B6,{8}B5,6,
{4}3,{8}8,2,{4}5h[4:1],{8}3,8,
5h[4:1],{16},,,,2,3,{4}2,{8}8/1,E1,
1/8,B8/B1,2/7,B7/B2,6/3,B6/B3,5/4,E5,
6/3,E1,1/8,B7/B2,2/7,{16}C,B5/B4,{8}D5,6/3,
{4}B1/B8f,{8}E1,B7/B2,{4}B5/B4f,{8}C,E6/E4,
B1f/B8,{16},,,,C,B5/B4,{4}D5f,{8}8/1,E1,
1/8,B8/B1,2/7,B7/B2,6/3,B6/B3,4/5,E5,
7,8,1,2,7,{16}B7,B6,{8}B5,6,
{4}3,{8}7,1,{4}4h[4:1],{8}2,8,
5h[4:1],{16},,,,2,3,{4}2,{8}8/1,E1,
1/8,B8/B1,2/7,B7/B2,6/3,B6/B3,5/4,E5,
6/3,E1,1/8,B7/B2,2/7,{16}C,B5/B4,{8}D5,6/3,
{4}B1/B8f,{8}E1,B7/B2,{4}B5/B4f,{8}C,E6/E4,
B1f/B8,{16},,,,1,6,{8}4,{16}8,2,{8}5,C,
{1}E4f/B4/B3,
{8}6,{16}8,2,{8}5,{16}1,7,{8}4,{16}6,4,{8}1,3,
{1}8,
{16}8,E2,7,B2,6,B3,5,E4,E8,1,B7,2,B6,3,E6,4,
{1}B7/B8,
{8}6,{16}8,2,{8}5,{16}1,7,{8}4,{16}6,4,{8}1,3,
7,C,6,D5,2,C/B6,3,D5/B5,
D1,D7/E7,C/B2/B3,D5/A5/E5/A4,{4}D3f/A2/D2/A3/D4,{8}8/7,E8,
8/7,B7/B8,6/1,B6/B1,5/2,B5/B2,3/4,E4,
7,8,1,2,7,{16}E1,C,{8}E4,6,
{4}3,{8}7,1,{4}4h[4:1],{8}2,8,
5h[4:1],{16},,,,2,C,{4}3,{8}7/8,E8,
8/7,B7/B8,6/1,B6/B1,5/2,B5/B2,3/4,E4,
2/5,E8,8/7,B7/B8,6/1,{16}C,E5/E3,{8}D4,5/2,
{4}B8/B7f,{8}7,5/1,{4}E4/E3f,{8}2,4/8,
E6/E7f,{16},,,,E8,E6/E2,{4}E4f,{8}8/7,E8,
8/7,B7/B8,6/1,B6/B1,5/2,B5/B2,3/4,E4,
7,8,1,2,7,{16}E1,C,{8}E4,6,
{4}3,{8}7,1,{4}4h[4:1],{8}2,8,
5h[4:1],{16},,,,2,C,{4}3,{8}7/8,E8,
8/7,B7/B8,6/1,B6/B1,5/2,B5/B2,3/4,E4,
2/5,E8,8/7,B7/B8,6/1,{16}C,E5/E3,{8}D4,5/2,
{4}B8/B7f,{8}7,5/1,{4}7/E3f/E4,{8}2,8/4,
2/E6/E7f,{16},,,,1,6,{8}4,{16}8,2,{8}5,C,
{4}E8f/B7/B8/B1/B6/E7/E1,{8}7bw3[8:1],1/5,{32}7b`Cf,B4/B2/B3,,,,,,,{8}6bw2b[8:1],8/4,
{32}6b`Cf,B3/B2/B1,E3`E2,A3/D3/D2/A1/A2,,,,,,,,,{16}1,6$,{8}4b,{16}8,2$,{8}5bw1[8:1]*w1[8:1],7/3,
{32}5b`B5f,B6/B4,B7`C`B3,E8/B1/E3/B2/B8,E1`E2`D8`D3,A8/D1/A1/D2/A2,{4},,,{16},{8}6,
{16}8,2,{8}5,{16}1,7,{8}4,{16}6,4,{8}1,3,
8,6,4,{16}5,3,{8}8,2,{16}1,7,{8}4,
{16}8$,A1,7$,B2,6$,B3,5$,A4,A8,1$,B7,2$,B6,3$,A5,4$,
,,,,{4}D8,B7/B8,C,
B4/B3,D4,B4/B3,C,
E
&inote_5=(180){4},
E
