&title=Cantilena Reperca
&artist=Acotto
&first=-1.056
&des=为什么这歌一会偏一个24分一会又不偏,过一会又偏.....
&clock_count=4
&wholebpm=173.100
&lv_5=14
&des_5=
&inote_5=(173.1)
{16},,,,
,,,,
,,,,
,,,,
{16},,,,
5s1[4:4]/4z8[4:4],,,,
,,,,
,,,,
{16},,,,
,,,,
,,,,
{12}B7,,C,
{12},B3,,
{16}5x/4x,,,,
{12}6h[12:2],,5,
74,,B8,
{12},E3,,
{16}65,,,,
{12}7h[6:1],,5,
84,,E1,
{12},B7,,
{16}A6/3>6[4:2],,,,
{12},E6h[12:2],,
{16},,,,
{12}4,4,5,
3h[6:1],,4h[6:1],
,5h[6:1],,
{16}6<3[4:2],,,,
{12},E4h[6:1],,
{16},,,,
{12}5,5,4,
{16}6,,,,
{12}6,6,5,
7h[6:1],,5h[6:1],
,4h[6:1],,
{16}3>1<6[4:2],,,,
{16},,,,
5x,,,,
{12}4,4,5,
{16}3,,,,
{12}3,3,4,
2h[6:1],,4h[6:1],
,5h[6:1],,
{16}6qq8[4:2],,,,
{16},,,,
Cf,,,,
,,,,
{12},,2,
{12}1,2,8,
3,8,4x,
7x,5x,6x,
E2,B6/E6,B4/E4,
{12}E8,C,,
7,8,7,
1,6,1,
5x,2x,4x,
{12}3x,5,4,
6,5,B7,
B2,E6/B5,E4/B4,
7,1,7,
{12}2,5,2,
{16}6b<3[8:3],,,,
{12}1,2,3,
4qq1[8:5],,5x/4x,
{12},6,,
{16}7h[4:2],,,,
,,,,
1>4<6[8:3],,,,
{16},,,,
{12}6,7,8,
{16}1,,,,
{12}E8,E2,E6/B5,
{12}E4/B4,E7,E3,
8,7,6,
5,4,3,
2x/8x,,7x/5x,
{12},4x/3x,,
5/2bh[4:1],,4,
4-1[8:1],3,5,
4,,5,
{12}5-8[8:1],4,6,
5,,7,
7pp6[4:2],8,6,
{24}1,2,3,4,5,,
{12},3,,
5x,,5-8[8:1],
6,4,5,
4x,,4,
{12}4<2[8:4],5,3,
4,,8,
,2,,
4-1[8:1],,8,
{12},6,,
{16}5bh[4:2]/1h[4:2],,,,
,,,,
{12},,E6,
{12}E5,E4,,
5x/4x,,6,
6,5,,
7h[6:1],,5h[6:1],
{12},4h[6:1],,
2,1,3,
8,4,,
7,5,6,
{12}4,5,,
{24}3,2,1,8,7,64,
3,2,1,8,7,6,
{12}5x/4x,5x/4x,,
{24}6x/3x,,,,,2,
,2-8[8:1],,4,,3,
,5b,,,,7,
,7-5[8:1],,8,,6,
{24},7b/1,,,,3,
,3-1[8:1],,4,,2,
,3b/5,,,,5h[6:1],
,1,,2,,5h[6:1],
{24},1,,2,,6,
,6-8[8:1],,5,,7,
,6b/4,,,,2,
,2pp1[8:3],,1,,3,
{24},8/2b,7,6,5,,
{16},,7,,
{24},5,,5h[6:1],,1,
,2,,5h[6:1],,1,
{24},2,,,,6,
,6<1[8:1],,4,,7,
,5b,,,,3,
,3-8[8:1],,4,,2,
{24},5b,,,,7h[6:1],
{16},,5h[6:1],,
{24},2,1,8,7,6b/2b,
{16},,4b/3b,,
{24},7b/1b,,,,6,
,6-1[8:1],,5,,7,
,6b/4,,,,3,
,3>8[8:1],,4,,2,
{24},5bqq8<3[4:5]/3,,,,A8f,
{16},,,,
,,,,
,,,,
{24},1,,1h[6:1],,,
,,,,,2qq5>8[4:4],
,2h[6:1],,,,,
,,,5,,5h[6:1],
{16},,,,
{24},7,,7h[6:1],,,
,,,,,5,
,5h[6:1],,,,1,
{24},,,,,7b/8b,
{16},,6b/4b,,
{24},1b-7v5[4:3]/2b,,,,E2,
{16},,,,
{24},,,,,E3,
{16},,,,
{24},4-2v8[4:3],,,,,
{16},,,,
{24},E6,,,,,
{16},,7-5v3[4:3],,
,,,,
,,E1,,
{24},,,,,2-8[4:1],
{16},,,,
{24},,,,,C,
,,,7,,8-5[8:1],
{24},6,,1,,82,
,,,3,,3,
,,,,,6,
,4q8[8:1],,5,,3,
{24},24,,3,,4,
,5,,,,7,
,5-1[8:1],,,,4,
,5,,A1f,,,
{24},,,8>4[8:1]/2,,7,
,6,,58,,,
,,,,,7b/3b,
,,,5,,5,
{24},4,,6h[4:1],,,
,,,8,1,2,
3,7,8,1,2,5bw1[8:1],
,,,,,5b,
{16},,,,
{24},B7,,B1,,B5,
,B3,,E8,,E2,
,C,,,,E5h[12:1],
{24},E6/E4,,,,,
{16},,4bw8[8:1],,
,,4b,,
{24},,,,,E7,
{24},E1,,E3,,E4,
,E5,,E6,,,
,,,E1h[12:1],,E8/E2,
{16},,,,
{24},,,,,8bw4[8:1],
,,,,,8b,
{16},,,,
{24},E8,,E1,,E2,
{24},E6h[6:1],,,,E4h[6:1],
{16},,E5,,
{24},6b/3b,,,,,
{16},,,,
{24},7b,,7,,5,
,6,,,,3,
,3,,5,,4,
,6,,6,,4,
{24},5b,,3,,5,
,4,,6,,6,
7,8,1,2,3>4[4:2],4,
{16},,8,,
{24},5h[6:3],,,,,
{16},,,,
{24},4,3,2,1,7,
6,5,4,8,1,2,
{16}3/8bxw4[4:1],,,,
,,,,
{24},Ch[384:1]/B6/B5/B3/B2,,,,,
{16},,,,
{24},1>5qq2[4:7],,,,,
{16},,,,
,,,,
,,,,
{16},,,,
,,,,
{24},,,,,8,
{16},,7,,
{24},6<1[4:1],,,,,
{16},,,,
{24},2>5[4:1],,,,,
{16},,,,
{24},7>2[4:1],,,,,
{16},,,,
{24},3<6[4:1],,,,,
{16},,,,
{24},1<4pp7[4:7],,,,,
{16},,,,
,,,,
,,,,
{16},,,,
,,,,
{12},,1,
,2,,
{16}3>8[4:1],,,,
,,,,
7<4[4:1],,,,
,,,,
{16}2qq5[4:2],,,,
,,,,
,,,,
,,,,
{12}6,6,5,
7,5,6,
4h[6:2],,E1,
,C,,
{12}3,3,4,
2,4,3,
5h[6:2],,E1,
,C,,
{12}6,6,4,
5,3,5,
2h[6:2],,C,
,E5,,
{12}3,3,5,
4,6,4,
7h[6:2],,C,
,E5,,
{12}7,7-4[8:1],8,
6,2,,
A8,,B1,
,E3,,
{12}5,5<4b[8:5],4,
6,2,,
{16},,,,
,,,,
{12}6h[6:1]/5,,4,
7,7,5,
6,,4/3h[6:1],
,5,2,
{12}2,4,3,
5<1[4:1],3,,
1x>5[6:1],,5xV71b[4:1],
{16},,,,
{12}3bx,,2,
2<7[8:1],1,3,
2,,4,
4-8[8:1],5,3,
{12}4/2x-6[8:1],,2x,
,8x,,
7h[6:1],,5h[6:1],
,1,,
{12}8b/2,,7,
7>2[8:1],5,6,
7/4,,3,
3,1,2,
{12}8b/4,,7,
5-1[8:1],6,4,
5x/3-7b[8:1],,3x/8b,
,6x<4<7[4:3],,
{16}1xh[4:4],,,,
,,,,
,,,,
,,,,
{12}7,8,6,
1,6,5,
7,4,5,
3,4,2,
{12}7,8,6,
1,8,2,
7,8,5,
1,8,3,
{12}7,7,5,
6,1,4,
2b>5[8:1],,8b-4[8:1],
,8bxw4[8:5]`8?qq1b[43.275#32:5],,
{16},,,,
,,,,
,,,,
,,,,
{16},,,,
,,,,
,,,,
,,,,
{16}3bh[12:6],,,,
{12},C,,
{16}5h[4:2],,,,
{12},C,,
{16}4-8[8:5],,,,
,,,,
4b-8b[8:1],,,,
{12}4b,Cf,,
{12}7b/1b,,6,
6<1[8:1],5,7,
{16}4,,,,
{12}2,1,3,
{24}8x,7x,6x-1[8:1],,8x,1x,
{12}2x-5[8:1],6,,
{16}2,,,,
{12}8hx,4hx,6hx,
{12}2hxb,,7,
7>2[8:1],8,6,
4,,3,
3>8[8:1],1,2,
{24}7x,6x,5x,,7x,6x,
5xw1[8:1],4x,7x/3x,,,,
{16}5b<8[8:1]*>2[8:1],,,,
5b,,,,
{24}8bx,7,6-1[8:1],,1bx,2,
3,4,6,,,,
2bx,3,4-8[8:1],,1bx,8,
7,6,4,,,,
{24}7bxp1[4:1],62,53,4,,,
{16},,,,
{24},,2,3,48,7,
6,54,3,2,17,6,
{16}5bxh[24:47],,,,
{12},,E1h[24:4],
{16},,,,
{24},,,,,B3h[12:2],
{16},,,,
{24},,,,,E7h[12:2],
{16},,,,
{24},,,,,1h[24:48],
{16},,C,,
{24},,,,,E6h[6:1],
{16},,,,
{24},,,,,B7h[6:1],
{16},,,,
{24},,,,,B3h[6:1],
{16},,,,
{24},,,,,7>3p6[4:4],
{16},,C,,
{24},,,,,B4h[6:1],
{16},,,,
{24},,,,,E4h[4:1],
{24},,,,,E5h[4:1],
,,,,,E6h[4:2],
{16},,,,
{24},,,,,1v2-4[4:4],
{16},,,,
,,,,
,,,,
,,,,
{16},,5v6-8b[4:4],,
,,,,
,,,,
,,,,
{16},,,,
{24},,,,,1-4[8:8]*s5[4:4],
{16},,,,
,,,,
{16},,,,
,,,,
,,,,
{24},,,,,E6,
{16},,E5,,
{24},E4,,,,2<3[4:4],
{16},,,,
,,,,
{16},,,,
,,,,
,,,,
{24},,,,,A7,
{16},,B6,,
,E5h[384:1],
{12}
