&title=Break Over
&artist=K-forest
&first=0
&des_5=ホシノちゃん
&lv_5=14
&des_7=ホシノちゃん(2024 ver.)
&lv_7=藏
&des=ホシノちゃん(2024 ver.)
&inote_5=(185)
{4},,,3<6[8:1]/7>2[4:15],
{4}3b,,,,5v4[2:1],,,,6v3[2:1],,,,6p4[2:1],,,,3<6[8:27],,,,1v8[2:1],,,,2v7[2:1],,,,8qq3[2:1],,,B7/B6/E7f,
{16}1bq5[8:1]*-3<4[8:1],,,,,,,,6bx/7bx,,,6bxqq3[16:13]/7bxpp2[16:13],,,6bx/7bx,,,,,,,,,,,,,,,,,,
{16}8bp4[8:1]*-6>5[8:1],,,,,,,,3bx/2bx,,,3bxpp6[16:13]/2bxqq7[16:13],,,3bx/2bx,,,,,,,,,,,,,,,,,,
{16}4h[8:1]/7h[8:1],,,3h[8:1]/6h[8:1],,,2/5,,2h[8:1]/5h[8:1],,,3h[8:1]/6h[8:1],,,4/7,,5h[8:1]/8h[8:1],,,3h[8:1]/6h[8:1],,,1/4,,1h[8:1]/4h[8:1],,,3h[8:1]/6h[8:1],,,5/8,,
{16}4,7,4,7,3,6,3,6,2,5,2,5,1,4,1,4,
{8}8>6[8:3],,6,7,8w4[8:1],,8b/Cf,,
{16}2b/6h[4:1],,,,1-5[8:1],2,3,4,5s1[8:1]*v8[8:1],,,,,,,,
{48}7h[8:1]/E3,B3,B4,E5,,,,,,,,,
{8}6qq6[4:1]/2,5,2qq2b[4:1],1,,,
{8}E5hf[4:1],,1b-4[8:1],,
{16}1-5[8:1]*-6b[8:1]/5,6,7,8,1,,,,
{8}3/4h[8:1],B2,6/5h[8:1],B7,1xq6[8:1]/2xp5[8:1],1x/2x,1x/2x,,
{16}7b/3h[4:1],,,,8-4[8:1],7,6,5,4z8[8:1]*v1[8:1],,,,,,,,
{48}2h[8:1]/E7,B6,B5,E5,,,,,,,,,
{8}3pp3[4:1]/7,4,7pp7b[4:1],8,,,
{8}E5hf[4:1],,8b-5[8:1],,
{16}8-4[8:1]*-3b[8:1]/4,3,2,1,8,,,,
{16}E6h[2:1],,,7,,,8,,1-5[8:1],,2,,3,,4,,
{16}7h[4:1]/3b,,,,5-1[8:1],4,3,2,1s5[8:1]*v3[8:1],,,,,,,,
{48}2h[8:1]/E7,B6,B5,E5,,,,,,,,,
{8}1-5[8:1],5-1[8:1]*pp4[4:1],1pp8[4:1],,,,
{16}E6hf[4:1],,,,8b-4[8:1],,,,4/8-3[8:1]*-5b[8:1],3,2,1,8,,,,
{8}6/4h[8:1],B7,3/5h[8:1],B2,8xs4[8:1]/7xz3b[8:1],8x/7x,,,
{16}1bw5[8:1],,,,,,,,3h[8:1]/7h[8:1],,,2h[8:1]/6h[8:1],,,1/5,,4h[8:1]/8h[8:1],,,1h[8:1]/5h[8:1],,,2/6,,3V51[8:1]/7,,,,6,,7,,
{16}2,8,2,8,3,7,3,7,4,6,4,6,3V17-5[2:1],5,3,5,,,,,,,,,4-8[8:1],,,,Cf/2-5-1-6b[2:1],,,,
{8}2x/5x,,,,7bxh[8:9],,,,
{48}A2f,E3,B3,B4,E5,A5hf[48:7],,,,,,,,B5,C,B1,A1hf[6:1],,,,,,,,,E1,B8,B7,E7,A6h[48:7],,,,,,,8x-4-1-6b[2:1],,,,,,,,,,,,
{8}8x/4x,,,,3bxh[8:9],,,,
{48}A8f,B8,C,B4,A4hf[6:1],,,,,,,,,E4,B3,B2,E2,A1hf[48:7],,,,,,,,E1,B8,B7,E7,A6h[48:7],,,,,,,2x-5-8-3b[2:1],,,,,,,,,,,,
{8}2x/5x,,,,6bxh[8:9],,,,
{48}A2f,E3,B3,B4,E5,A5hf[48:7],,,,,,,,E6,B6,B7,E8,A8hf[48:7],,,,,,,,E1,B1,B2,E3,A3h[48:7],,,,,,,7x-4V61b[2:1],,,,,,,,,,,,
{8}7x/4x,,,,2bxh[8:9],,,,
{48}A7f,E7,B6,B5,E5,A4hf[48:7],,,,,,,,D5,A5,D6,A6hf[6:1],,,,,,,,,E7,B7,B8,E1,A1h[48:7],,,,,,,,,,,,,,,,,,,
{4}2-4[8:1],2-8[8:1]*-8[8:1]/5,2-6b[8:1]/6,2/7,
{48}2b/7,D3,A3,D4,A4,,,,,,,,2b/6,D2,A1,D1,A8,,,,,,,,2b-4[8:1]/5-1[8:1],B2,C,B6,A6,,,,,,,,,,,,,,,,,,,,
{4}7-5[8:1],7-1[8:1]*-1[8:1]/4,7-3b[8:1]/3,7/2,
{48}7b/2,D7,A6,D6,A5,,,,,,,,7b/3,D8,A8,D1,A1,,,,,,,,7b/4,B7,C,B3,A3,,5x-1[8:1],,,,,,,,,,,,5/7,,,,,,
{16}8-6[8:1],,,1,1-5[8:1]*-5[8:1],,2,,2-4b[8:1],,,6,,,7,,
{32}8b,E8,E7,A6,,,,,
{48}1b,B1,C,B5,A5,,,,,,,,
{32}2bw6[8:1],E3,E4,A4,,,,,,,,,,,,,
{8}1/3,4/5,6/8,7/2,
{16}8,1,7,2,5,4,6,3,
{32}7b,E7,E6,A5,,,,,
{48}8b,B8,C,B4,A4,,,,,,,,
{32}1b,E2,E3,A3,,,,,6x>3[2:7]/2x<7[8:1],,,,,,,,
{4}2b,,,,7h[4:3],,,,8h[4:3],,,,1h[4:3],,,,
{4}2>7[2:3]*q8[2:1],,,,8p2[2:1],,,,8<1[2:3]*pp4[2:1],,,,6q1[2:1],,,,
{8}7b/Cf,,,,,3b/E1f,,2b/E5f,,,,,,,6b/E2f,,7b/E4f,,,,,1b/B5f,2b/E5f,3b/B4f,,,,,,,
{16}1b/8b,,2,4,
{16}3,,3,,3/7,,7,6,5/1,,5,,5/1,,1,2,3/7,,7,,8-4[8:1],1,7,2,8,,3,,2/6,,1,8,
{16}2,5,2,5,3,6,3,6,4,7,4,7,5qq8[2:1],8,5,8,,,,,,,,,1<5[8:1]*>5[8:1],,,,1b,,,,
{16}2b-6[8:1]/7b,,,,2/5<8[8:1],,4,,5,,1-3[8:1],,4,,1-5[8:1],,6,,1,,7-3[8:1],,8,,7/1>4[8:1]*<6[8:1],,,,1,,,,
{16}2-8[8:1],,,,2-4[8:1]/5-1[8:1],,4V26[4:1],,2/5,,,,8-5[8:1],,7,,8-3[8:1]/3,,2,,8>6[8:3]/6,,7,,8/2,,,,8,1,2,3,
{16}4b/7b-3[8:1],,,,4/7,,5>2[8:1],,1,,5-1[8:1],,8,,5,,7-5[8:1],,5V73[4:1],,7/2-8[8:1],,3,,2,,,,2/4,,3/5,,
{8}6b/E4f,7b/E2f,,
{16}1,2,3b/E8f,,2b/E6f,,,,2,8,
{4}1b<6[8:1]*>4[8:1],1bw5[8:1],1b,
{16}3,2,1,8,
{16}7-3[8:1],,,,7b/4b>1[8:1],,5,,4,,8-6[8:1],,5,,8-4[8:1],,3,,8,,2-6[8:1],,1,,2/8<5[8:1]*>3[8:1],,,,8,,,,
{16}7-1[8:1],,,,7-5[8:1]/4-8[8:1],,5V73[4:1],,7/4,,,,1-4[8:1],,2,,1-6[8:1]/6,,7,,1<3[8:3]/3,,2,,1/7,,,,1,8,7,6,
{16}5b/2b-6[8:1],,,,5/2,,4<7[8:1],,8,,4-8[8:1],,1,,4,,2-4[8:1],,4V26[4:1],,2/7-1[8:1],,6,,7,,,,7/5,,6/4,,
{8}3b/E6f/B6/B5,,,
{16}8b,7b,6b/E2f/B2/A2,,,,,,7,1,
{8}8bx-6[8:1],4bx-2[8:1],8bx-4[8:1],4bx,8bx*-5[8:1]*-3[8:1],,Cf,,
{16}1b/6b-8[8:1],,,,6-4[8:1],,2,,6-8[8:1],,3,,6-4[8:1],,4V62[4:1],,6,,,,3,,4h[8:1],,1,8,7,6,5b/1b,,,,
{16}2<7[8:1],,,,2>5[8:1],,4,,2<7[8:1],,8,,2,,4h[4:1],,
{24},,,7-3[8:1],8,1,2,3,4,5bqq1[4:1],,,,,,8,,,8,,,,,,
{16}7b-1[8:1],,,,7-5[8:1],,3,,7-1[8:1],,4,,7-5[8:1],,5V73[4:1],,7,,,,4,,5h[8:1],,2,1,8,7,6b/2b,,,,
{8}3b/7b,1b/Cf,,2b/8b,4b/6b,3b/Cf,,1b/8b,1b-5[8:1]/8b-6b[8:1],,1b-3[8:1]/8b-4b[8:1],,1bw5[8:1]/8b,,D1/A1/D2,,
{16}3-1[8:1],,,,3b-5[8:1],,7,,3-1[8:1],,6,,3-5[8:1],,5V37[4:1],,3,,,,6,,5h[8:1],,8,1,2,3,4b/8b,,,,
{16}7>2[8:1],,,,7<4[8:1],,5,,7>2[8:1],,1,,7,,5h[4:1],,
{24},,,2-6[8:1],1,8,7,6,5,4bpp8[4:1],,,,,,1b,,,1b,,,
{16}2,3,
{16}4b,,4,,4/7,,4,,3/6,,3,,2/5,,2,,3b/4b,,2,,6/5,,7,,3/4,,1/8,,5/6,,1,8,
{16}2b/7b-5[8:1],,2,,2,,2,3,4b/8b-4[8:1],,4,,3,,2,2,
{16}5,1,5,1,6,2,6,2,6,4,7,3,8-4b[8:1],2,6,4,8b-2v3V58[2:3]/Cf,,,,,,,,,,,,,,,,
E
&inote_7=(185)
{4},,,3<6[8:1]/7>2[4:15],
{4}3b,,,,6h[4:3],,,,5h[4:3],,,,4h[4:3],,,,
{4}8V64[4:3],2,3,4V62[1:1],3,2,1,2<4[1:1],3,2,3,4pp8[4:3],3-1[4:1],,,A2/B2f/E3,
{16}4b-8[8:1]/6b-8[8:1],,,,,,,,1bx/2bx,,,1bx<3[4:3]/2bx>7[4:3],,,1bx/2bx,,,,,,,,,,,,,,,,,,
{16}5b-1[8:1]/3b-1[8:1],,,,,,,,8bx/7bx,,,8bx>6[4:3]/7bx<2[4:3],,,8bx/7bx,,,,,,,,,,,,,,,,,,
{16}4h[8:1]/6h[8:1],,,5h[8:1]/6h[8:1],,,7/8,,5h[8:1]/3h[8:1],,,4h[8:1]/3h[8:1],,,2/1,,
{16}5h[8:1]/7h[8:1],,,6h[8:1]/7h[8:1],,,7/8,,4h[8:1]/2h[8:1],,,3h[8:1]/2h[8:1],,,2/1,,
{16}3,7,3,7,3,7,3,7,2,6,2,6,1,5,1,5,8z4[4:1],,,,,,,,7-3[8:1],,,,
{48}7x,B7,Cf,B3,,,,,,,,,
{16}2b/7b,,,,2v5[8:1],1,3,1,2,,,,7<4[8:1],8,6,8,7-3[8:1],,,,1-5[8:1]/7,,8,,1/6>3[8:1],,7,,2w6b[8:1]/6,,1,,
{48}A2,B2,C,B5/B7,B6,A6,,,,,,,
{8}1bxh[8:1],,8h[8:1],C,6h[8:1],C,
{8}7-3[8:1],2-8[8:1],7<4[8:1],2-6[8:1],7w3b[8:1],2,,,
{16}7bx/2bx,,,,7v4[8:1],8,6,8,7,,,,2>5[8:1],1,3,1,2-6[8:1],,,,8-4[8:1]/2,,1,,8/3<6[8:1],,2,,7w3b[8:1]/3,,8,,
{48}A7,B7,C,B4/B2,B3,A3,,,,,,,
{8}8bxh[8:1],,1h[8:1],C,3h[8:1],C,
{16}4h[8:1]/6h[8:1],,,2h[8:1]/4h[8:1],,,5h[16:1]/7h[16:1],,
{48}1-4[8:1],,,,,,8-5b[8:1],,,,,,E2,B2,B3,E4,,,E8,B7,B6,E6,,,
{16}1b,,,,3v8[8:1],4,2,4,3,,,,6<1[8:1],5,7,5,6-2[8:1],,,,3>8[8:1]/6,,4,,3/7v4[8:1],,6,,1xw5b[8:1]/7,,2,,
{48}A1,B1,C,B6/B4,B5,A5,,,,,,,
{8}7bxh[8:1],,1h[8:1],C,3h[8:1],C,
{8}1-5[8:1]/8,2,1/7<4[8:1],8,2w6[8:1]/7,1,,,
{16}3b/8b,,,,,,,,8bx/6bx,,,5bx/7bx,,,4bx/6bx,,1bx/3bx,,,4bx/2bx,,,5bx/3bx,,4bx/8bx-4[8:1],,,,,,,,
{16}1,5,1,5,2,6,2,6,
{32}3x,4,5,6,1x,8,7,6,2x,3,4,5,6,7,8,1,
{8}2x-7[8:1]/6x-3[8:1],,,,1s5[8:1],,1/8,,
{8}2-5b[8:1]/6-1[8:1],,,,2xh[4:3]/6xh[2:1],,,,
{32},5bx,4,3h[32:13],,,,,,1bx,8,7h[32:13],,,,,,2bx,1,8h[32:5],,,,,,,,,,,,,
{8}7-4b[8:1]/3-8[8:1],,,,7xh[4:3]/3xh[2:1],,,,
{32},4bx,5,6h[32:13],,,,,,8bx,1,2h[32:13],,,,,,7bx,8,1h[32:5],,,,,,,,,,,,,
{8}2-5b[8:1]/6-1[8:1],,,,2xh[4:3]/6xh[2:1],,,,
{32},5bx,4,3h[32:13],,,,,,1bx,8,7h[32:13],,,,,,2bx,1,8h[32:5],,,,,,,,,,,,,
{8}7-4b[8:1]/3-8[8:1],,,,7xh[4:3]/3xh[2:1],,,,
{32},4bx,5,6h[32:13],,,,,,8bx,1,2h[32:13],,,,,,7bx,8,1h[32:5],,,,,,,,,,,,,
{4}8-6[8:1],1-5[8:1]*-5[8:1],2-4b[8:1],,
{32}8b,E8,E7,A6,,,,,
{48}1b,B1,C,B5,A5,,,,,,,,
{32}2b,E3,E4,A4,,,,,,,,,,,,,
{4}8-6b[8:1],1-5[8:1]*-5[8:1],2-4[8:1],,
{32}8b,E8,E7,A6,,,,,
{48}1b,B1,C,B5,A5,,,,,,,,
{32}2b,E3,E4,A4,
{8}8bx,,8bx,
{16}1-3[8:1],,,8,8-4[8:1]*-4[8:1],,7,,7-5b[8:1],,,3,,,2,,
{32}1b,E2,E3,A3,,,,,
{48}8b,B8,C,B4,A4,,,,,,,,
{32}7b,E7,E6,A5,,,,,,,,,,,,,
{8}5h[2:1]/1,1,8,8,
{24}8x,1,2,6x,5,4,1x,2,3,7x,6,5,
{32}1b,E2,E3,A3,,,,,
{48}8b,B8,C,B4,A4,,,,,,,,
{32}7b,E7,E6,A5,
{8},1w5b[8:1],,
{4}1bqq3[4:13],,,,5h[4:3],,,,6h[4:3],,,,7h[4:3],,,,
{4}8pp6[4:13]/3h[4:3],,,,4h[4:3],,,,3h[4:3],,,,2h[4:3],,,8-5[8:1]*-3[8:1],
{48}8b,E7/E2,B6/B2,Cf,B4,,,,,,,,
{8},,,7bx/Cf,,2bx/Cf,,,,,,,1bx/Cf,,6bx/Cf,,,,,8bxz4[8:1]*-5[8:1],8bx,8bx,
{16},,,,,,,,,,,,1bx/6bx,,7,8,
{16}7,,5/6,,3/4,,2,1,2,,3/4,,5/6,,7,8,7,,4/6,,3/5,,2,1,2,,3/5,,4/6,,7,8,
{16}7x,1,8,2,5,3,6,4,
{32}5,6,7,8,1,2,3,4,5,6,7,8,1,2,3,4,
{8}5xh[2:1],B5,C,B1,A1,,
{48}E1,B1/B8,Cf,B4/B5,E5,,,,,,,,
{16}1-6[8:1]/8,,,2,1,,5h[4:1],,4,3,2,1,4/8,3/7,2/6,1/5,
{16}4/8-5[8:1],,7x,,2/8x-3[8:1],,1,,8w4[8:1],,,,8,,,,
{16}1-5[8:1],,,,1/7v4[8:1],,8,,3>8[8:1]/7,,2,,3,,5-1[8:1],6,7-4[8:1],,5,,7,,8,,8w4[8:1],,,,8b,,,,
{16}1/8q4[8:1],,,7,8,,5h[4:1],,6,7,8,1,6/2,7/3,8/4,1/5,
{4}2V48[4:1],8V62[4:1],1-5[8:1],1b,
{8}4b/8b,2b/6b,,,1b/5b,3b/7b,,,1bx-4[8:1]/7bx-4[8:1],,1x/7x,,3h[8:3],,
{16}2,1,8,7,
{16}8-3[8:1]/6,,,7,8,,4h[4:1],,5,6,7,8,5/1,6/2,7/3,8/4,
{16}5/1-4[8:1],,2x,,7/1x-6[8:1],,8,,1w5[8:1],,,,1,,,,
{16}8-4[8:1],,,,8/2v5[8:1],,1,,6<1[8:1]/2,,7,,6,,4-8[8:1],3,2-5[8:1],,4,,2,,1,,1w5[8:1],,,,1b,,,,
{16}8/1p5[8:1],,,2,1,,4h[4:1],,3,2,1,8,3/7,2/6,1/5,8/4,
{4}7V51[4:1],1V37[4:1],8-4[8:1],8b,
{16}2b/D7/E7f,,,,,,8b/D3/E3f,7b,6b/B4f/E4,,,,,,1b-5[8:1]/D8/E8f,2b,3b-7[8:1]/B6f/A6,,1,,3,,8x,,8xw4[8:1],,,,,,,,
{16}2b/7b,,1,8,1-5[8:1],8,1,,1/7<4[8:1],,8,,7>2[8:1],,1,,7,,5h[4:1],,4,3,2,1,4/8,3/7,2/6,1/5,4<7[8:1]/8>3[8:1],,,,
{16}4/8-4[8:1],,,,8<7-5[8:1],,3,,8>1-3[8:1],,4,,8,,5h[4:1],,3x,2,1,8,3/7,2/6,1/5,4/8,3-6[8:1]/7-2[8:1],,,,3x/7x>6[4:1],,,,
{16}7b,,,,1x-5[8:1],,8-6[8:1],,1-3[8:1],,8-4[8:1],,1,,8,,,,
{48}8x<5[8:1],1,2,3,,,,,,,,,
{16}8-4[8:1],,,,8,,7b,,,,
{8}4b/6b,8b/Cf,,3b/7b,1b/5b,6b/Cf,,1b/8b,1b-5b[8:1]/8b-6[8:1],,1b-3b[8:1]/8b-4[8:1],,1b/8b,,C,,
{16}7b/2b,,8,1,8-4[8:1],1,8,,8/2>5[8:1],,1,,2<7[8:1],,8,,2,,4h[4:1],,5,6,7,8,5/1,6/2,7/3,8/4,5>2[8:1]/1<6[8:1],,,,
{16}5/1-5[8:1],,,,1>2-4[8:1],,6,,1<8-6[8:1],,5,,1,,4h[4:1],,6x,7,8,1,6/2,7/3,8/4,5/1,6-3[8:1]/2-7[8:1],,,,6x/2x<3[4:1],,,,
{16}2b,,,,8x-4[8:1],,1-3[8:1],,8-6[8:1],,1-5[8:1],,8,,1,,,,
{48}1x>4[8:1],8,7,6,,,,,,,,,
{16}1-5[8:1],,,,1,,2b,,7,8,
{48}7,E7f,B6,B5,E5,,1b,,,,,,
{16},,2,1,
{48}2,E3f,B3,B4,E5,,8b,,,,,,
{16},,1,8,2,7,4,5,3,6,2,7,
{32}2,3,4,5,6,7,8,1,2-7b[8:1]/6-3[8:1],,,,,,,,2bp8[2:3]/6bp4b[2:3],
