&title=樂園-Atlantis-
&artist=Evalia/海伊
&first=0.61
&des=liansuki
&lv_5=13+
&inote_5=(63.335)
{2},
{2}1>4[24:4],8<5[24:4],1p8[24:4],
{6}5/1,
{96},,,,,,,,,4/5,,,,,,,,3/6,,,,,,,
{384},,1b/8b,,,,,,,,,,,,,,,,,,,,,,,,,,,,,,
{12}7h[12:2]/2,4,3,1h[6:1],
{36}7x,6x,5x,4x,,,8-4-2[6:1],,,5h[6:1],,,,,,,,,,,,,,,
{12}1h[12:2]/5,6,7,8h[6:1],
{36}2x,3x,4x,5x,,,1-5-7[6:1],,,4h[6:1],,,,,,,,,
{24}3,3,2,,1-6-4[6:1],,,,2/8,,1,,,,,,8-3-6[6:1],,3,,1/2,,8/3,,,,,,
2h[6:1],,4,,6,,8h[6:1],,6,,4,,2V46[6:1]/1V35[96:13],,,8
,8,,1/2,,,,,,
{12}2,3,4,5h[4:1],,,3,4,5,3h[4:1]/6,,,7,6,5,4h[4:1],,,6,5,4,6h[4:1]/3,,,
1-5[36:5],8,7,6,,,8-4[36:5],1,2,3,,,1>5[6:1],8,7,6,,,8q1[6:1],1,2,3,,,
{24}4h[8:1]/8,,,6,4,5,2h[12:1],,4h[6:1],,,,8-4[48:5],,6,2,7,3,8,,1h[6:1],,,,
5h[8:1],,,3,5,4,7h[12:1],,5h[6:1],,,,1-5[48:5],,3,7,2,6,1,,8h[6:1],,,,
6>3[48:5],,8,3,7,2,6,,1,,1h[12:1],,3<6[48:5],,1,6,2,7,3,,8h[12:1],,4h[12:1],,
1V73[6:1],,3,7,2,6,1,,5h[48:14],,,,6<3[6:1],6,,4,,,3b/6b,,,,,,
E1,,E3,,E5,,E7,,E1,,E3,,5p4[4:1],,,,,,,,,,,,E1,,E7,,E5,,E3,,E1,,E7,,4q5[4:1],,,,,,
,,,,,,7-2[48:5],,,,,,4,,,,,,3-6[48:5],,3,,,,8h[8:1],,,,,,4/8,,4h[12:1]/8h[12:1],,
,,2/6,,2h[12:1]/6h[12:1],,,,8w4[8:1],,,,,,,,,,,,
2-5[12:1]/A7f,,6-4[12:1],,7,,2,,6,,1h[48:4],,5-1[12:1],,,3,,8,5,,6,,3/7,,
8-5[12:1]/A2f,,4-6[12:1],,3,,8,,4,,1h[12:1],,5-1[12:1],,,7,,2,5,,4,,3/7,,
2>5[18:1]/8<5[18:1],,2/8,,1-5[24:1],,2b/8b,,,,,,
4>1[18:1]/6<1[18:1],,4/6,,5-1[24:1],,6b/4b,,,,,,
2/8,,5,3,4,,7/1,,4,6,5,,1qq6[4:1]/2pp5[4:1],,,,,,
{2},
{12},,,E3,E7,E5,E1,E2,E6,C,,,,,,A1,E8,E3,B6,E4,A5,
4,3,2,1h[12:1]/5,,5,4/6,3,2,1,8,7,6p2[8:1],,4,4q8[8:1],,3,3<6[6:1]*>8[6:1],,,,,,
{24}2h[24:6],,4,,3,,1h[6:1],,,,,,3h[12:3],,4,,2,,1,,2,,5,,
1v8[8:1],,,,6,,7p2[6:1],,,,2,,4q5[6:1],,,,,,,,,,,,4<2[6:1]/5,,6,,7,,6h[6:1],,,,,,
5-7-4-8[4:1]/3,,4,,3,,1,,2,,1,,3,3h[12:1],,4,4h[12:1],,
5h[12:1],,6h[12:1],,5h[12:1],,1b,,,,,,,,
8h[6:1],,,,{96}4x-8[12:1],3x,2x,1x,
{24},5,,8,,4V62[96:13]/2,,3,,7,,8/4,,,,1-5[12:1],,3,,7h[12:1],,1,,8>3[12:1],,3,,6,,
8-4[12:1],,7,,4,,8,,
1h[1:0],,2h[1:0],3h[1:0],4h[1:0],,5h[1:0]/6h[1:0],,6h[1:0]/7h[1:0],,
8-3[12:1],,3-7[12:1],,1/2,,8b/3,,,,2,2,8-3[12:1],,3-7[12:1],,7-4[12:1],,
4,,2x,,1-5[12:1],,8h[12:1],,,,5/1,,6h[6:1],,,,4h[12:1],,
{48}1bx,8x,7x,6x,5x,4x,2bx,1x,8x,7x,6x,5x,3bx,2x,1x,8x,7x,6x,5x/1hx[8:1],,,,,,
{96}5x-1[12:1],6x,7x,8x,
{24},4,,1,,5/7,,4h[24:2],,8h[24:2],,
{48}4,3,2,1,8,7,6,5,
{24}8-4[12:1]/4,,6,,2h[12:1],,8,,
1-4[12:1],,5-8[12:1],,6,,1,,5,,3,,8-5[12:1]/4-1[12:1],,1/5,,3/7,,4b/8b,,,,
,6,6h[24:4]/4,,8,,2,,
{48}8b/4b,1,2,3,4,5,6,7,8,,4,,7hx[24:4]/4,,,,5,,,,3,,,,1h[24:4],,,,3,,,,5h[24:2],,,,
{48}1b,8,7,6,5,4,3,2,1,8,7,6,5/1x,4,3,2,1,8,7,6,5,4,3,2z6[12:1],
1b/8b,,,,,,,,,,A7,,A5,,,,,,
{384}B4,,,,,,,,,,,,,,,,,,,,,,E3,,,,,,,,,,,,,,,,,,,,E1,,,,,,,,,,,,,,
,,,,,,,,,,,,,,,,,,,,,,,,,,,,,B2,,,,,,,,,,,,,,,,,,,,,,,,,,,,,,,,,,,,,,,,B6,,,,,,,
,,,,,,,,,,,,,,,,,,,,,,,,,,,,,,,,,A4,,,,,,,,,,,,,,,,,,,,,,,,,,,,,,,,,,,,,,,,,,B2,,
,,,,,,,,,,,,,,,,,,,,,,,,,,,,,,,,,,A5,,,,,,,,,,,,,,,,,,,,,,,,,,,,,,,,,,,,,,
,,,,,,,,,,,,,,,,,,,,,,,,,E4,,,,,,,,,,,,,,,,,,,,,,,B6,,,,,,,,,,,,,,,,,,,,E3,
,,,,,,,,,,,,,,,,,,,E8,,,,,,,,,,,,,,,,,,,,,,,,,,,,,,,,,,,,,,,,,,,,,,,A1,,
,,,,,,,,,,,,,,,,,,,,,,,,,,,,,,,,,,,,,,C,{4},{12},{384},,,A5,,,,
,,,,,,,,,,,,,,,,,,,,,,,,,,,,,A3,,,,,,,,,,,,,,,,,,,,,,,,,,,,,,,,,,,,,,,,,,,,,B6,
,,,,,,,,,,,,,,,,,,,,,,,,,,,,,,,,,,,,,,,,,,,,,,E2,,,,,,,
,,,,,,,,,,,,,,,,,,,,,,,,,,,,,,,,,,,,,,,,,C,,,,,,,,,,,,,,,,,,,,,,,,,
,,,,,,,,,,,,,,,,,,,,,,,,,,,,,,,,,A7,,,,,,,,,,,,,,,,,,,,,,,,,,,,,,,,,,,,,,,,,,,,,,
,,,,,,,,,,,,,,,,,A1,,,,,,,,,,,,,,,,,,,,,,,,,,,,,,,,,,,,,,,,,,,,,,,,,,,,,,,,,,
C/4xq5[8:7],,,,,,,,,,,,,,{1},,
