&title=世界第一公主殿下
&artist=超时空辉夜姬
&first=-1.4
&des=CH3COOOH
&des_5=CH3COOOH
&lv_5=13
&inote_5=(118){4},{8},,,,,1,
{1}7>7[4:5],
{8}E2,E3,E4,E5,{4}C,{8}3,4,
{4}6h[8:1]/5h[8:1],4h[8:1]/5h[8:1],4h[8:1]/3h[8:1],{16}5/4,,,3-8[32:3],
3,,,6,{4}6h[4:1],7>5[2:1],6,
5<1[4:1],1>5[4:1],{8}5,6,7-1[16:1],6x-2[16:1],
7-3[16:1],6,7,{24}4xh[2:1],,B8/B1/E1h[48:23],,,,,,,,,,,,,{8}3,
{16}2-4[12:1],4,,,{8}5/2,{12}6>3[8:1],{24}5,7h[4:1],,,,,,,,,{8}7,
{16}7-5[12:1],5,,,{8}4/7,{12}3<6[8:1],{24}4,2h[4:1],,,,,,,,,{8}2,
{16}2-4[12:1],4,,,{8}2/5,{12}6>3[8:1],{24}5,7h[4:1],,,,,,,,,{12}7,
{24}7,5,,5,{12}1,{24}1,3,,3,{12}5-8[12:1],{24}5-2[12:1],1,,1,,,,,,,{8}C/B7/B3,
{16}6x<8[12:1],5x,,,{8}6/5,{12}2q7[8:1],{24}1,2h[4:1],,,,,,,,,{8}2,
{16}3>1[12:1],4,,,{8}3/4,{12}7p2[8:1],{24}8,7h[4:1],,,,,,,,,{8}7,
{16}8<6[12:1],5,,,{8}8/1,2v5[12:1],8-4[12:1],2,8,
{16}3-6[16:1],3b,,,7-3[16:1],7b,,,1v4[8:1]*s5[8:1],1b,,,,,,,{4}4x-1b[32:3],
7h[2:1],1,{8}1,8,
{12}2,{24}2,4q5b[16:5],,4,,,,{8}6,{16}7,7,,8x,,1,8,1,
{4}7>1-6-4[16:5],{16}2,,,E2,,E3,,E4,{48},,,,{24}6,5,,5,
{8}7h[8:1],{16}1,1-5[32:3],,5-7[16:1]*-3[16:1],,,,,,A2/A1/D2/E2,,7qq6[8:1]*pp8b[8:1],{4},{16},,,{48},{24}7x,
1,,1,{12}8,{24}8,2-5[12:1],,2,{12}4,4,{24},,{8}6,
7/4,{12}8,{24}8,1,,1,{8}7-3[32:3],2-6b[32:3],,,8-6[32:3],
5,8>2[32:3],3,8v5[32:3],5,{24}8/1,,,,,3,
{12}4,{24}4,2,,6,{12}5,{24}5,7,,1,{8}8V25[8:1],2/4-8[8:1],{4}7/8q3[8:3]*p5[8:3],
,,6x,6p3[8:3]/7pp2[8:3],
,,E2,E1/C,
{2}E8/2x<3[2:1],E1h[4:1],
{8}5/4,5/4,2V41b[4:1]/7V58b[4:1],7/2,,,,,3h[4:1],
1,4h[4:1],1,5h[4:1],8,6,8/1,
3/6h[4:1],8,5h[4:1],8,4h[4:1],1,3,8/1,
2-4[32:3],7-5[32:3],2,7,1-3[32:3],8-6[32:3],1,8,
1h[2:1],A6/D6/E7/D7/E6/B6f,{16},E4f/B3/B4/A3/D4/A4,,,{4}Cfh[4:1],B6/E6/B5/B4/E4/B3/A6/A5/D6/A4/D4/A3/E5/D5,
{8}7/2-5[32:3],1,2/7-1[32:3],{24}6,,5,{8}7p5[4:1],4,7,1,
2-4[8:1],4-1[8:1],1-5[8:1],8,{4}7h[4:1],{8}4,6/3,
2/7-4[32:3],8,7/1-4[32:3],{24}2,,7,{8}1-6[32:3],{24}8,,3,1,,,,,2,
{12}4,{24}4,1,,7,{12}5-1[8:1],{24}5,8,,,{4}5bv3[8:1]*v7[8:1],5b,
{8}1h[8:1],{24}8,7,6,{8}5/4>1[8:1],2,{12}4/6,7,{24},8,{12}1-4[32:3],{24}1,6<1[8:1],,6,
{8}1p5[8:1],6,3,2,{4}1v6[8:1]*v4[8:1],1,
{8}3x/6x<1[32:3],5,6/4>1[32:3],{24}3,,6,{8}4<7[32:3],{24}5,,2,4,,,,,1,
{12}8,{24}8,2,,2,{12}4,{24}4,6,,6,{32}8,7,6,5,4,3,2,1,{4}8/Ch[1:1],
{8}7,B7,6,B6,5,B5,4-8[32:3],4>1[32:3],
4b<7[32:3],4b,4b,{16}8b,{48}B8/B7/B1/E8/E1,C/B6/B2,B4/E6/E3/B5/B3,{4}A4/A5/A3/E5/E4/D4/D5,1b/8b,
{8}6,{16}7-5[12:1],5,,,{8}4/7,{12}3<6[8:1],{24}4,2,,,{4}3x/2,
{8}2,{16}2-4[12:1],4,,,{8}5/2x,{12}6>3[8:1],{24}5,7,,,{4}7/6x,
{8}7,{16}7-5[12:1],5,,,{8}7/4,{12}3<6[8:1],{24}4,2,,,{4}3x/2,
{12}2,{24}2,4,,4,{12}8,{24}8,6,,6,{12}4v1[12:1],{24}4v7[12:1],8,,8,,,,,,,{4}B2/B6/B5/B3,
8h[8:1]/1h[8:1],2h[8:1]/1h[8:1],2h[8:1]/3h[8:1],
3h[8:1],4h[8:1],5h[8:1],6h[8:1],
{8}7-5[16:1],8,2-4[16:1],1,7-4[16:1],8,2-5[16:1],1,
{16}6-3[16:1],6b,,,2-6[16:1],2b,,,8-4-2[8:1]*-4-6[8:1],8b,{8}A4h[8:1],
E
