&title=ネリと琥珀糖
&artist=sasakure.UK
&first=0
&des=lige
&lv_5=14
&des_5=lige
&inote_5=
(172){4},{64},,,,,,,,,,4,5,,,,,,,{32}2,,,,7,,,,3,,,,6,,,,4,
,,,5,,,,3,,4,,5,,,,8,{64},,,,,,,7,,,,,,,,6,,,,,,,{32}4h[64:3],{64},,,,,,,,,,,,,,,3,
,,,,,,,6,,,,,,,,2,,,,,,,,7,,,,,,,,3,,,,,,,,6,,,,,,,,4,,,,,,,,,{16}6,
5,4,,1,,2,,3,,4h[64:3],,,,8,
,1,{64},,,,,7,,,,,,,,2,,,,,,,,6,,,,,,,,3,,,,,,,,6h[16:1],,,,,,,,3,,,,4,,,,5,,,,,,,,8,
,,,,,,,7,,,,,,,,,{32}6,,,,4h[8:1],,,,,,,,6bh[32:7],,,,,,,,,,,,3bh[32:7],
,,,,,,,,,,,7bh[32:7],,,,,,,,,,,,2bh[64:13],{64},,,,,,,,,,,,,
||这是一个标记~
,
,,,,,,,,,7<2[0.6977##1.2645],,,,,,,,,,,,,,,,5v4[64:37],,,,,,,,,,,,,,,,7,{4},{16},,,{64},
||这是一个标记~
,
,,,,,,{16}
||这是一个标记~
,,,,,{8}
||这是一个标记~
,{4}5h[64:49],
,4h[64:17],{64},,,,,,,,,3,,,,7,,,,4b<1[0.8721##0.3488],,,,,,,,6-2[8:1],,,,,,,,3
||这是一个标记~
,
,,,,,,,6,,,,,,,,,,,,,,,,4,{4},{16},{64},,,5,,,,,,,,5h[64:9],,,,,,,,,{32}3h[8:1],
,,,7h[8:1],,,,,,,,,,,,6h[4:1],,,,,,,,2,,,,2,,,,3,
,,,4,,5,,6,{64},,,,,,,8,,,,,,,{32}8,{64},,,,,,,1b-5[8:1],,,,,,,,5<8[64:9],,,,,,,,1,,,,,,,,E6,
,,,E7,,,,E8,,,,1,,,,2,,,,3,,,,4,,,,,,,,,,,,,,,,,{16}6,3,6,,2,
,5b>8[0.8721##0.3488],,3-7[8:1],,6,,3,,,,5b,E4,E3,E2,E1,
7,6,5,4,{64},,,,,,,,,,,,,2h[8:1],,,,,,,,5h[8:1],,,,,,,,,,,,,,,,1,,,,,,,,2,,,,,,,,3,
,,,,,,,2,,,,,,,,3,,,,,,,,4,,,,,,,,,{32}5h[4:3],{1},{16},,,{64},,,1bh[8:1],
,,,,,,,,,,,,,,{32}8,
,7,,6,{64},,,,,,,2,,,,,,,,2,,,,,,,,2h[64:25],{4},{16},,{8}8,
1,8,3,{64}3,,,,,,,,,3h[64:15],,,,,,,,,,,,,,,,8bh[64:7],,,,,,,,,,,,,,1,
,,,2,,,,3,,,,,,,,,,7,,,,,,,,7,,,,,,,,7h[64:25],{4},,{32}5/4,
{64},,,,,6,,,,,,,,2,,,,,,,,,{32}5,,,,5,,,,,,,,1>4[8:1]
||这是一个标记~
,,,,7,
,,,1,,E3,,E4,,,,8<5[8:1],,,,2,,,,8,,E7,,E6,,,,2>5[8:1],,,,8,
,,,2,,E4,,E5,,,,7<4[0.3706##0.1744],{64},,,,,,,1,,,,,,,,7,,,,E6,,,,E5,,,,,,,,1,,,,,,,,2,
,,,,,,,3,,,,,,,,4h[8:1],,,,,,,,5h[8:1],,,,,,,,6,,,,,,,,7,,,,,,,,8,,,,,,,,,{16}8h[8:1],
,7h[8:1],,6h[8:1],,,,2h[8:1],,3h[8:1],,4h[8:1],,5,{64},,,,,5bx/4,,,,6,
,,,7,,,,8/1,,,,2,,,,3,,,,5/4b,,,,3,,,,2,,,,1/8,,,,7,,,,6,,,,4/5b,,,,6,,,,7,,,,8/1,,,,2,,,,3,
,,,4b/5,,,,3,,,,2,,,,1/8,,,,7,,,,6,{192},,,,,,,,,,{24}5b/4,{48},6,,,7,,,1/8,,,{24}2,{48},3,{96},,,,,{32}7b,,6,,5,
,4,,3,,2,{64},,,4b,,,,5,,,,6,,,,7,,,,8,,,,1,,,,6b,,,,5,,,,4,,,,3,,,,2,,,,1,,,,3b,
,,,4,,,,5,,,,6,,,,7,,,,8,,,,5b,,,,4,,,,3,,,,2,,,,1,,,,8,,,,,{16}3b,4,5,6,
7,8,5b,4,3,{64}2,,,1,,,,8,,,,,{16}3b,4,5,6,7,8,5b,4,
3,2,1,8,{24}3b,4,5,6,7,8,5/1,6/2,7/3,4b/8b,{48},{16}5h[12:1]/1h[12:1],{64},,,,,8/4,,7/3,,6/2,,5/1,,8bw4[0.7849##0.1526],{4},{64},,,{192},{48}7,
,,1,,,7,,,{24}1,{192},,,{64}8b,,,,,,,,,,,,,,,,,{32}3,,,,6,,,,4,
,,,5/3,,6/2,,7/1xh[8:3],,,,8,,7,,6,,5,,4,,,,1/8h[4:1],,2,,3,,4,
,5,{64},,,,,,,4/7,,,,6/3,,,,2/5,,,,4/1,,,,3-8[0.0218##0.1526]/8-3[0.0218##0.1526],,,,,,,,,{16}
||这是一个标记~
,{32},4/7,{64},,,,,,,6/5,,,,,,,,4,,,,,,,,,{16}6,
3,6,3,6,,1<5[0.5233##0.2616],2,3,4,5v7[0.436##0.1744],,E1,E8,E7,
E6,C,,,2,6,2,6,3,3,,7,,1,{64},,,,,5h[8:1],,,,,,,,,,,,,,,,,{32}6/4,
,7/3,,2/8h[64:23],{64},,,,,1,,,,2,,,,3,,,,4,,,,5,,,,,,,,8/1xh[#0.3488388],,,,7,,,,6,,,,
5,,,,4,,,,,,,,,{32}2/5,,6/3,,4/7,,8/5,,1x-6[0.0218##0.1526]/6x-1[0.0218##0.1526],,,,,,,,5/2,,,,4/3,,,,5,
,,,3,,6,{64},,,3,,,,6,,,,3,,,,,,,,8>4[0.5233##0.2616],,,,7,,,,6,,,,5,,,,4v2[0.436##0.1744],,,,,,,,E1,,,,E2,,,,E3,
,,,E4,,,,C,,,,,,,,,,,,7,,,,1,,,,7,,,,1,,,,7,,,,2h[8:1],,,,,,,,6h[8:1],,,,,,,,,{8}4h[64:9],
{32},5h[8:1],,,,,,,,5/3,,6/2,,7/1h[32:11],,,{16}8
||这是一个标记~
,7,6,5,{8}4,{16}1/8xh[4:1],2,
3,4,{64}5
||这是一个标记~
,,,,,,,,,7/4,,,,3/6,,,,5/2,,,,1/4,,,,8x-3[0.0218##0.1526]/3x-8[0.0218##0.1526],,,,,,,,,,,,,,,,4/7,,,,,,,,5/6,,,,,,,,4,
,,,,,,,,,,,,,,,,{32}3,,6,,3,,,,1<5[0.5233##0.2616],,2,,3,,4,,5v7[0.436##0.1744],,,,E1,,E8,
,E7,,E6,,C,,,,,,2,{64},,,8,,,,2,,,,8,,,,,,,,1b-5[0.5233##0.1744],,,,2,,,,3,,,,1,,,,8,,,,7,
,,,1b,{4},{16},{64},,,8b,,
||这是一个标记~
,,7,,,,6,,,,5,,,,4,,,,,,,,1b,
||这是一个标记~
,,,2,,,,3,,,,4,
,,,5,,,,,,,,,{16}8b-4[0.5233##0.1744],7,6,8,1,2,8b,,,,2,,4b,
5,6,7,8,{64},,,,,5b,,,,4,,,,3,,,,2,,,,1,,,,,,,,4h[8:3]/8-5[0.0218##0.5233],{4},,{16},{64},,,2>1[0.1744##0.8939],
,,,,,,,2/5h[64:25],{4},,{16},,{32}
||这是一个标记~
,
,,,5h[64:7],{64},,,,,,
||这是一个标记~
,5h[64:7],,,,,,,,,,,,,,,{32}3,,7,,4b<1[0.8721##0.3488],,,,6-2[8:1],,,,3,
,,,6,,,,,,,,4,,,,,,,,,,,,5,,,,5h[64:9],{64},,,,,,,3h[8:1],
,,,,,,,7h[8:1],{4},{16},{64},,,6h[4:1],,,,,,,,,,,,,,,,2,,,,,,,,2,,,,,,,,3,
,,,,,,,4,,,,5,,,,6,,,,,,,,,8,,,,,,,8,,,,,,,,,{8}1b-5[8:1],5<8[64:9]
||这是一个标记~
,1,
{16}E6,E7,E8,1,2,3,{8}4,{64},,,,,,,,,6,,,,3,,,,6,,,,,,,,2,,,,,,,,5b>8[0.8721##0.3488],
,,,,,,,3-7[8:1],,,,,,,,6,,,,,,,,3,,,,,,,,,,,,,,,,5b,,
||这是一个标记~
,,E4,,,,E3,,,,E2,,,,E1,,,,7,,,,6,
,,,5,,,,4,,,,,,,,,{32}2,,,,7,,1,,7,,1,,7,{64},,,,,,,8h[8:1],,,,,,,,7h[8:1],,,,,,,,6h[8:1],
,,,,,,,7h[8:1],,,,,,,,6h[8:1],,,,,,,,5h[8:1],,,,,,,,4h[64:25],{4},{16},,5h[8:1],
,1h[8:1],,6h[8:1],,2h[8:1],,7h[8:1],,3h[8:1],,8h[8:1],,4h[8:1],,7h[8:1],
,5h[8:1],,8h[64:13],{64},,,,,6h[16:1],,,,,,,,7h/5h,,,,6h/4h,,,,5h/3h,,,,4h/2h,,,,1bh[64:49],{4},,,{16},,{32}8,
,2,,7,,1,,7h[8:1],,,,,,3,
,3,,,,8h[64:17],{64},,,,,,,,,,,,,,,,,,,3,,,,6,,,,,,,,2,,,,3,,,,4,,,,5,,,,6,
,,,,,,,4,,,,5,,,,6,,,,7,,,,8,,,,,,,,6,,,,7,,,,8,,,,1,,,,2,,,,,,,,,{8}5/3,
4/6,3,{4}5h[16:3],{16}1,2,{8}3h[8:1],{16}8,7,6,5,
{8}4,{16}1,2,3,4,{8}5,{64},,,,,5,,,,3,,,{16}6,{64},4,,,,5,,,,3,,,,,,,,6,
,,,,,,,3,,,,,,,,5h[4:1],{4},,{32}6,,5,,4,,3,
,2,,,,4,,3,,2,,1,,8,,,,2,,1,,8,,7,,6,{64},,,,,,,5/3,,,,,,,,6/4,
,,,,,,,7,,,,,,,,4h[16:3],,,,,,,,,,,,,,,,8,,,,7,,,,6h[8:1],,,,,,,,1,,,,2,,,,3,,,,4,
,,,5,,,,,,,,2,,,,3,,,,4,,,,5pp5[0.0654##0.3052],,,,B5,,,,,,,,,,,,,,,,,{16}3,3,6,4,5,
||这是一个标记~
,3,,5,,5h[8:1],,,,4/6,3/7,2/8h[64:25],{64},,,,,1,,,,2,,,,3,,,,4,
,,,5,,,,,,,,8/1h[4:1],,,,7,,,,6,,,,5,,,,4,,,,,,,,2/5,,,,6/3,,,,4/7,,,,8/5,,,,6-1[0.0218##0.1744]/1-6[0.0218##0.1744],,,,,,,,,,,,,,,,,{32}5/2,
,,,3/4,,,,5h[16:3],,,,,,,,4,,6,,4,{64},,,,,,,1>5[0.5233##0.2616],,,,8,,,,7,
,,,6,,,,5v3[0.4361##0.1744],,,,,,,,5/E2,,,,6/E3,,,,7/E4,,,,8/E5,,,,1/C,,,{32}
||这是一个标记~
,{64},,,,,,,7,,,,2,,,,7,,,,2,,,,7,,,,2,
,,,,,,,8,,,,,,,,8,,,,,,,,2h[8:1],,,,,,,,,,,,,,,,,{16}5/3,6/2,{8}7/1h[8:3],{16}8,7,
6,5,{8}4,{16}1/8xh[#0.3488388],2,{64}3,,,,{16}4,{8}5,{16}4/7,6/3,2/5,4/1,{8}8-3[0.0218##0.1526]/3-8[0.0218##0.1526],
,4/7,{64}6/5,,,,,,,,,4h[16:3],,,,,,,,,,,,,,,,6,,,,3,,,,6,,,,,,,,8<4[0.5233##0.2616],,,,1,,,,2,
,,,3,,,,4v6[0.4361##0.1744],,,,,,,,4/E8,,,,3/E7,,,,2/E6,,,,1/E5,,,,8/C,,,,,,,,,,,,,{32}1,,,,,,,,,,8,
,,,2,,,,6,,,,1,,,,7,,,,3,,,,8,,,,3,,4,
,5,{64},,,,,,,7,,,,,,,,2,,,,,,,,5,,,,,,,,4,,,,,,,,,,,,,,,,1,,,,,,,,6,,,,,,,,3,
,,,,,,,8,,,,,,,,2,,,,,,,,6,,,,,,,,,{16}1,,6,5,4,,2,
,6,,1,,7h[4:1],,,,1,{64},,,,,7,,,,,,,,3,,,,,,,,8,,,,,,,,2,
,,,,,,,6,,,,,,,,1,,,,,,,,8,,,,7,,,,6,,,,,,,,1,,,,,,,,7,,,,,,,,,{32}3,
,,,8,,,,2,,,,6h[32:9],,,,,,,,,,,,3h[32:9],,,,,,,,,,,,5h[16:5],
,,,,,,,,,,,,4bh[4:1],,,,,,,,,,,,,8,,7,
,6-3b[0##5.9084],
E
