&title=Kartrider Mashup ~Cosmograph Remix~
&artist=Studio EIM / Cosmograph
&first=-0.02
&des=小橘子
&wholebpm=180
&clock_count=4
&lv_5=14
&des_5=
&inote_5=(180)
{1},
{8},,,Ch[4:1],,,,,,
{32}B7,B8,B1,B2,C,,,,
{16},,,,,,3,4,2/5,,1x/6x,,,,
3/7,,2b>2>2[8:9]/6b,,,,
{1},
{16},,5h[8:1],,,,4x/6x,,,,3/7,,
1bV75V31^8^7^6^5^4^3^2^1[8:9]b/5b,,,,
{1},
{16}8h[1:0],,8xh[1:0],,8h[1:0],,1/7,,
{24}E7,B6,B5,E5,,,
{16}3bh[4:1],,,,4h[4:1],,2x,,1x,,
7/8,,1-5[16:3]b/6-1>7[2:1],,,,1b/6b,,,,,,C,,,,
4xh[8:1]/8xh[8:1],,,,2h[8:1]/6h[8:1],,,,3/5,,2,,4/6,,7,,
B8/2x,,,,B4/6x,,,,Chf[4:1],,,,B2/B6,,,,
1-5[6:1]/7,,,,1/8x,,,,7,,4,,3x/5,,2,,1/7^1[8:1],,
1xqq5[16:7]/7,,,,2xh[4:1],,,,,,B3,,,,4-2[8:1],,,,
4x/6,,,,7-4V61[16:7],,3,,7x,,,,2-5[6:1],,,,2,,8xh[4:1],,,,,,
3/7-5-8-4[16:6],,,,3-1[8:1]/7,,,,,,,,1x-5[6:1],,1,,8,,,,
7-3[8:1],,3V51[4:1],,7,,2-6[6:1],,,,2,,8,,,,
1x-5[6:1]/6x-8[6:1],,,,1/6,,,,
4-2[8:1],,7,,4x,,6,,5x,,5,,2^4[8:1],,4>8[4:1],,2x<6[4:1],,
7x,,5x-8[8:1]b,,,,A5f,,,,,,,,,,,,,,,,
{24}3xh[8:1]/5h[4:1],,,,,,4h[8:1],,,6x-2[8:1]b,,,
{16},,6,,3x,,,,
1-5[6:1],,,,1/8,,,,7^4[6:1],,4,,7,,3,,
2p4[4:1],,,,2/4q2[4:1],,,,7x,,,,8^5[6:1],,,,
8x^3[6:1],,,,8,,,,5-2[8:1]*-8[8:1],,4,,5x,,,,
1-5[16:3],,8>7[16:7],,1,,8x,,,,,,2h[8:1],,,,
4h[8:1]/6h[8:1],,,,3/7,,,,2/8,,2-6[8:1]/8,,,,
2,,8x-4[8:1],,,,8/1xpp5[16:6],,,,1/7x,,,,
8^2<6[16:6],,,,8xb/3xb-8[8:1],,,,3,,,,
1xv4[8:1]/5xv8[8:1],,,,1/5,,,,
3x-6[8:1]/7x-2[8:1],,,,3/7,,,,
4x-2[8:1],,8-6[8:1],,4x,,8,,
1b,,1x<2[16:7],,5x,,1b-5[16:3],,,,,,,,,,
1b,,1x>7-3[16:7]b,,5x,,1b-5[16:3]b,,,,,,,,,,
4x-2[8:1]/6x-4[8:1],,,,4-8[8:1]/6,,,,
1^4[6:1],,,,1,,8q5[6:1],,,,8x,,7xv6[16:3],,,,
6x-4[8:1],,,,B2,,,,1bh[8:3],,3-7[6:1]b,,,,3,,
2xv5[6:1],,,,2,,8q4[6:1],,,,8,,
3xq8[8:1],,3,,5x-1[8:1],,5,,1x,,2,,
3xb-5[8:1]/8xb-4[8:1],,,,3/8,,,,
2x-5[8:1]/7x-4[8:1],,,,2/7,,,,
1x-5[8:1]/8x-4[8:1],,,,1/8x,,,,
3x-1[8:1],,7x-5[8:1],,3,,7,,
8b,,8x-4V28[16:7],,4x,,8bV64[16:3],,,,,,,,,,
5b,,5xs1<5[16:7]b,,1x,,5b>1[16:3]b,,,,,,,,,,
3x^5[8:1]/5x^7[8:1],,,,3/5-1[6:1],,,,8x-4[6:1],,,,
8,,1x,,2x/5x,,3qq3pp3[16:11],,6,,3x/7x,,,,,,,,,,
Ch[2:1],,,,,,,,E2,,E3,,,,
Ch[16:14],,,,E8,,,,E6,,E7,,,,,,,,
6xh[4:1],,,,B4,,B3,,5h[4:1],,B1,,,,
3xh[4:1],,,,E8,,,,4h[4:1],,B5,,C,,B1,,,,
3xh[2:1]/7xh[2:1],,,,,,,,,,2/6,,,,
4xh[4:1]/8xh[16:10],,,,,,,,3,,2,,,,1/8,,,,
3h[8:1]/6h[4:1],,,,4-1[6:1],,5,,4x/6xh[8:1],,,,
7,,1x<1[1:1]/8x,,,,,,,,,,,,,,,,,,
5h[1:1],,,,1,,,,2x,,,,3x,,,,
4h[4:3],,,,5,,,,6x,,,,7x,,,,
3/8,,2x,,4x,,6,,1,7,2x,8,1-5[8:1]b,6,3x,7,1x,,,,,,,,
Ch[2:1]f,,,,,,,,
3x,,2,,1-7[8:1]/7,,6,,1x-3[8:1],,5,,1x,,5,,
4x/6x,,7,,3/5-7[8:1],,2,,4x/5x-3[8:1],,,,5x/6x,,,,
4x^7[6:1],,4,,2x-6[6:1],,2,,8xq4[6:1],,,,7x/8x,,,,
5xh[1:0],5,5,5,5xh[1:0],5,5xh[1:0],5,5xv2[6:1]b,,6,,5b/7b,,,,
8-3[8:1]b,,,,8x-5[8:1]b/7xh[8:1],,,,1xh[8:1]/8x-2[8:1]b,,,,
8x-6[8:1]b/7xh[8:1],,,,1xh[8:1]/8x-4[8:1]b,,,,
8x/7xh[8:1],,,,8xw4[6:1]b,,,,,,,,
2x/6x,,3,,4/5,,6,,5x-2[8:1]/7x-4[8:1],,,,5/7,,,,
1x,8,2,7,1x,8,3x,6,2x-6[8:1]b,5x,1x,,2b,,,,
8x^3[6:1],,,,8/7,,6,,5x-8[8:1],,,,4,,3,,
2-5[6:1]/7x,,7,,2/7,,7,,6x-2[6:1]/7,,7,,6x/7,,7,,
1xb,,1x>5qq1[2:1],,8x,,1b^6[4:1],,,,,,,,,,
5b,,5x>6[16:7]b,,1x,,5bq2[16:3]b,,,,,,,,,,
3x-5[8:1]/5x-7[8:1],,,,3/5>1[16:3],,,,8xV24[16:3],,,,
7,,,,6x-2[8:1],,6,,5x-1[8:1],,5,,4x-8[8:1],,4,,
2xV46V82>2[16:17]b,,,,Cf/2xb,,,,,,,,,,,,,,,,
7x-3[8:1],,,,1-5[8:1]/7,,,,1x/8x-4[8:1],,,,2x/8x,,,,
3xh[8:1]/5xh[8:1],,,,3-1[8:1]/5,,6,,3x/7v4[6:1],,,,7x,,
1xh[8:6],,,,,,,,,,5-1[8:1]b,,,,1x/5x,,,,
8xb,,1xpp5[16:6],,7,,1b/6b-8[8:1],,,,,,,,,,
4b,,5x<5[16:7]b,,3x,,2b-6[16:3]b/5b,,,,,,,,,,
7x^4[6:1],,,,1/7,,,,2-5[6:1],,5,,2x,,6,,
7x/4x,,5,,5,,2x/6x,,1,,1,,3x/7x,,,,
E3h[4:3]/E7h[4:3],,,,,,,,,,,,Cf,,,,
4b/5b,,2,,3/7,,8,,2,3,4,5,8,7,6,5,
4/3x,,2,,7,8,5,2,6,3,8h[4:1],,4xb,,4xb,,
5/7,,6,,3/4,,1,,7,6,5,4,1,2,3,4,
5xh[16:10]/A7,,,,E6,,B8,,B4,,E2,,3xb/7xb,,,,
4/6,,2,,3/5,,7,,2x,3,4,5,8x,7,6,5,
3x,4,2,5,3x,4,2,5,3x,4,2x,5,1b,,,,
2h[16:1]/8xh[16:1],,2xh[16:1]/8h[16:1],,
3h[16:1]/7xh[16:1],,3xh[16:1]/7h[16:1],,
2h[16:1]/6xh[16:1],,2xh[16:1]/6h[16:1],,
3x/5x,,8x,,,,1,,7h[8:1]/B3,,,,2h[8:1]/B6,,,,
3/5,,2/6,,
1b,2,3,4,5/8x,7,6,5,4/1x,2,3,4,5/8x,7,6,5,
4/1x,2,3,4,5/8x,1,2,3,4/1x,2,3,4,5x/B6h[8:1]/B7h[8:1],,,,
3xb,4,2,1,3,8,4,7,5,6,4,5,3,4,2,5,1b,8,7,6,8b,7,6,5,3,4,2,5,
B1/B8,,,,
6b,4,5,2,8,1,6,4,7,3,1,2,6,3,8,4,
{24}7b,6,5,2x,3,4,8x,7,6,1x,2,3,7x,6,5,2,3,4,Ch[8:1],,,,,,
{16}2xb-4[8:1],8,7x,6,2x-8[8:1],7,6x,5,2x-6[8:1],6,5x,4,2x,,8b,,
,,7,,3/5,,2,,1-5[6:1]/6,,2,,1/8,,7,,
6xh[4:3],,,,E5,,,,B3,,,,
2h[4:3],,,,E1,,,,B7,,,,
6x^3[6:1]b,,,,3/6,,,,
1b,,6x,5,6,,8b,,3x,4,3,,
1b/5b,,3b/7b,
E
