&title=The Empress
&artist=UNDEAD CORPORATION
&first=-0.56
&des=爆了
&des_5=爆了
&lv_5=14+
&inote_5=(270){4},,,,,,,,,,,,,,,,,,,,{1}7h[4:3]/2h[4:3],
{4}3,4,5,6,
{1}7h[4:3]/2h[4:3],
{4}6,5,{8}4,4,3,3,
{4}5<8[2:1],2,2,2,
8<5[2:1],2,2,2,
5-1[2:1],3,3,3,
8-4[2:1],2,2,2,
1>4[2:1],7,7,7,
4>1[2:1],7,7,7,
1-5[2:1],6,6,6,
4-8[2:1],7,7,7,
8/7-4[8:1],2,3-6[8:1],8,
7-2[8:1],5,4-8[8:1],6,
5,5,6/2,6/2,
{1}7v1[4:1]/3v1[4:1],
{12}1,8,1,8,1,8,1,8,1,8,1,8,
1,8,1,8,1,8,1,8,1,8,1,8,
1,8,1,8,1,8,1,8,1,8,1,8,
1,8,1,8,1,8,1,8,1,8,1,8,
1,8,1,8,1,8,1,8,1,8,1,8,
1,8,1,8,1,8,1,8,1,8,1,8,
1,8,1,8,1,8,1,8,1,8,1,8,
1,8,1,8,1,8,1,8,1,8,1,8,
1,8,1,8,1,8,1,8,1,8,1,8,
1,8,1,8,1,8,1,8,1,8,1,8,
1,8,1,8,1,8,1,8,1,8,1,8,
1,8,1,8,1,8,{4}1,{8}2,6,
{4}1-4[8:1],5,7-2[8:1],3,
4-7[8:1],8,1-6[8:1],5,
{8}4,4,6,6,2,2,8,8,
{12}2,1,2-5[4:1],1-6[6:1],2,1,{24},,,,,,,,,,,,{8}2,
5,4,5,8,5,4,5,
1,5,4,5,7,5,4,5,
2,5,4,5,7,5,4,5,
1,5,4,5,8,5,4,5,
2,5,4,5,8,5,4,5,
1,5,4,5,7,5,4,5,
1,2,3,4,7,6,5,4,
{4}3/2-7[4:1],2/3-6[4:1],{8},,,,7,
4,5,4,1,4,5,4,
8,4,5,4,2,4,5,4,
7,4,5,4,2,4,5,4,
8,4,5,4,1,4,5,4,
7,4,5,4,1,4,5,4,
8,4,5,4,2,4,5,4,
8,7,6,5,2,3,4,5,
{4}6/7-2[4:1],7/6-3[4:1],,,1-6[8:1],
{8}3,2,{4}1-4[8:1],{8}7,8,
{4}1-6[8:1],{8}3,2,{4}1-4[8:1],{8}6,7,
{4}8-5[8:1],{8}3,2,{4}1-4[8:1],{8}6,7,
{4}8-5[8:1],{8}2,1,{2}8-3[8:1],
{8}8,8-4[8:1],,1-5[8:1],,7-3[8:1],,2-6[8:1],
8,8-4[8:1],,1-5[8:1],,7-3[8:1],,2-6[8:1],
8,8-5[8:1],,1-4[8:1],,7-4[8:1],,2-5[8:1],
8,8-6[8:1],,1-3[8:1],,,,,{4}4-7[8:1],
{8}2,3,{4}4-1[8:1],{8}6,5,
{4}4-7[8:1],{8}2,3,{4}4-1[8:1],{8}7,6,
{4}5-8[8:1],{8}2,3,{4}4-1[8:1],{8}7,6,
{4}5-8[8:1],{8}3,4,{2}5-2[8:1],
{8}5,5-1[8:1],,4-8[8:1],,6-2[8:1],,3-7[8:1],
5,5-1[8:1],,4-8[8:1],,6-2[8:1],,3-7[8:1],
5,5-8[8:1],,4-1[8:1],,6-1[8:1],,3-8[8:1],
5,5-7[8:1],,4-2[8:1],,,,,3,
3,6,6,4,4,5,5,
3,4,5,6,3,4,5,6,
2,2,7,7,1,1,8,8,
2,1,8,7,2,1,8,7,
4,4,5,5,3,3,6,6,
3,4,5,6,3,4,5,6,
2,5,3,6,2,5,3,6,
{12}2,3,4,5,6,7,2,3,4,5,6,7,
{8}3,8,2,7,3,8,2,7,
{12}3,2,1,8,7,6,3,2,1,8,7,6,
2,5,2,5,3,6,3,6,2,5,2,5,
2,3,4,5,6,7,2,3,4,5,6,7,
3,8,3,8,2,7,2,7,3,8,3,8,
3,2,1,8,7,6,3,2,1,8,7,6,
{16}1,2,3,4,5,6,7,8,1,2,3,4,5,6,7,8,
1/5,2,3,4,5,6,7,8,1,2,3,4,5,6,7,8,
1/5,2,3,4,5/1,6,7,8,1/5,2,3,4,5/1,6,7,8,
1/5,2,3,4,5/1,6,7,8,{2}5h[4:1]/1h[4:1],
{12}2,6,2,6,2,6,3,5,3,5,3,5,
2,4,2,4,2,4,1,5,1,5,1,5,
2,4,2,4,2,4,2,5,3,6,2,7,
1,7,1,7,1,7,2,5,2,5,2,5,
3,7,3,7,3,7,2,1,3,8,4,7,
3,6,3,6,3,6,3,6,3,6,3,6,
2,7,4,8,3,6,1,5,3,6,4,8,
3,7,3,7,3,7,3,7,3,7,3,7,
1,6,1,6,1,6,2,8,2,8,2,8,
3,1,3,1,3,1,4,8,4,8,4,8,
3,1,3,1,3,1,3,8,2,7,3,6,
4,6,4,6,4,6,3,8,3,8,3,8,
2,6,2,6,2,6,3,4,2,5,1,6,
2,7,2,7,2,7,2,7,2,7,2,7,
3,6,1,5,2,7,4,8,2,7,1,5,
3,6,1,5,2,7,{2}4h[4:1],
{12}4,5,4,5,4,5,4,5,4,5,4,5,
4,5,4,5,4,5,4,5,4,5,4,5,
4,5,4,5,4,5,4,5,4,5,4,5,
4,5,4,5,4,5,4,5,4,5,4,5,
4,5,4,5,4,5,4,5,4,5,4,5,
4,5,4,5,4,5,4,5,4,5,4,5,
4,5,4,5,4,5,4,5,4,5,4,5,
4,5,4,5,4,5,4,5,4,5,4,5,
4,5,4,5,4,5,4,5,4,5,4,5,
4,5,4,5,4,5,4,5,4,5,4,5,
4,5,4,5,4,5,4,5,4,5,4,5,
4,5,4,5,4,5,{4}4,{8}3,7,
{4}4-1[8:1],8,6-3[8:1],2,
1-6[8:1],5,4-7[8:1],8,
{8}1,1,7,7,3,3,6,6,
{12}4,5,4-1[4:1],5-8[6:1],4,5,{24},,,,,,,,,,,,{8}2,
5,5,5,8,5,5,5,
1,5,5,5,7,5,5,5,
2,5,5,5,7,5,5,5,
1,5,5,5,8,5,5,5,
2,6,6,6,8,6,6,6,
1,6,6,6,7,6,6,6,
1,2,3,4,1,8,7,6,
{4}5/4-1[4:1],4/5-8[4:1],{8},,,,7,
4,4,4,1,4,4,4,
8,4,4,4,2,4,4,4,
7,4,4,4,2,4,4,4,
8,4,4,4,1,4,4,4,
7,3,3,3,1,3,3,3,
8,3,3,3,2,3,3,3,
8b,8,8,8,2b,2,2,2,
5b,5,5,5,4b,4,4,4,
{1}6b/3b>6[4:13],
,3h[1:1],
,7<3[1:1],
3<7[1:1],
{2}7v1[2:1],1v3[2:1],
{1}3<7[2:1],
3h[2:1],
4h[2:1],
5h[2:1],
6h[1:5],
8h[2:1],
1h[2:1],
2h[2:1],
3h[1:1],
E
