&title=Triumph & Regret
&artist=TypeMARS
&first=0.23
&des=Jack2310
&lv_5=14.1
&des_5=Jack2310
&inote_5=
(175){4},{8},,,,,,5b,
2,6,3,{16}5,4,5,4,{8}6,3,
7,1,8,3,{4}2/7-4[8:1],7/3-8[8:1],
{8}3/6,7,1,6,{16}8,7,8,7,{8}1-5[8:1],2,
1/8,7,4,6,4,7,{4}3/8-4[8:1],
{8}8/2,3,2/5,6,{16}3,5,3,5,{8}3,6,
7/4,3,6,4,7/3-8[8:1],6,{4}3/7<4[8:1],
{8}7/1,2,5/3,6,7/5,4,7/3,8,
{16}7b,6,5,4,3,2,1,8,{32}2,3,4,5,6,7,8,1,2,3,4,5,6,7,8,1,
{4}2/5b,6h[8:1]/2q4[4:1],8,7,
3h[8:1],2h[8:1]/7p5[4:1],1,3,
6h[8:1],8h[8:1]/1pp4[4:1],7,6,
3h[8:1]/8qq5[4:1],1h[8:1],2,3b/6,
2>5[8:1],7-4[8:1],3-8[8:1],6<1[8:1],
2z6[8:1],8-5[8:1],4-1[8:1],6z2[8:1],
3>8[8:1],4-7[8:1],2-5[8:1],8<5[8:1],
4-1[8:1],6-3[8:1],8>3[8:1],{16}4,5,6,7,
{4}8/4b,6/3V17[4:1],7pp3[2:1],6,
6,7V53[4:1],3pp7[2:1],2,
2h[16:1],2<6[4:1],6pp3[2:1],5,
5,7V13[4:1],3p6[4:1],4h[8:1],
{8}4>8[4:1],4,{4}8pp4[2:1],7,7,
7>3[4:1],3s7[4:1],4,4,
3V17[4:1],7s3[4:1],6,5,
{16}6/3,7,8,1,2/5,3,4,5,{32}3/6,2,1,8,7,6,5,4,3,2,1,8,7,6,5,4,
{4}3/7b-3[4:15],4,{8}5,6,{4}4,
{8}8,1,{4}6,{8}2,5,{4}4h[8:1],
{8}6,4,6,4,8,2,{4}1h[8:1],
{8}2,8,2,8,1,8,7,6,
2,1,5,6,7/2,3,{4}4/6,
{8}7/5,4,6,3,5,2,4,1,
6/8,7,5,6,4,5,3,4,
2h[4:1],5,6h[4:1],3,1h[4:1],5,7h[4:1],3,
1,6,2,5,3h[4:1],4,{4}5,
{8}6h[4:1],3,{4}4,{8}2h[4:1],7,{4}8,
{8}1/6,2,5,3,6h[4:1],4,{4}3,
{8}2h[4:1],7,{4}8,{8}7/8,6,1/2,3,
{4}2/8<3[4:11],2h[8:1],{8}1,2,{4}1,
{8}2,8,2,8,1,7,1,7,
2,1,8,7,6,7,8,1,
7,7,2,2,6h[4:1],4,3h[8:1],5,
{16}6b,5,{8}6,{16}3,4,{8}3,{16}6,5,{8}6h[16:3],{16},,,,2,
1,{8}2,{16}7,8,{8}7,{16}2,1,{8}2h[16:3],{16},,,,6,
5,{8}6,{16}3,4,{8}3,{16}6,5,{8}6h[4:1],{16},,,,2,
1,{8}2,{16}7,8,{8}7,{16}2,1,{8}2h[8:1],{16}8,7,6,5,
{4}4/2h[8:1],3/5h[8:1],2h[8:1]/7-4[8:1],7/1h[8:1],
5h[8:1]/3-8[8:1],3/6h[8:1],1h[8:1]/6-1[8:1],6/2h[8:1],
{8}8/3h[4:1],7,6,5,1/6h[4:1],2,3,4,
8/3h[4:1],7,6,5,6/3,{16}4,5,4,5,{8}4,
{4}5/3b-8[8:1],3/7,5/3-8[8:1],7/3,
5/3-8[8:1],7/3,3/5,{8}7/3,2,
{4}1/7b-4[8:1],7/3,1/7-4[8:1],3/7,
1/7-4[8:1],3/7,1/7,{16}7/8,1,2,3,
{8}4/5b,5,5/4,5,6/3,3,3/6,3,
7b/2,7,2/7,7,8/1,1,8/1,1,
7/2b,1/8,7/2,8/1,{16}7b,2,7,2,7,2,7,2,
{4}7h[4:1],{16}1,2,3,4,8,7,6,5,1,2,3,4,
{4}6b/5-2[8:1],5/7-4[8:1],7/3-8[8:1],3/6-3[8:1],
6/2-7[8:1],2/5-8[8:1],5/1-4[8:1],1/7<4[8:1],
7/3b>8[8:1],3/5-1[8:1],5/2-5[8:1],2/7-4[8:1],
7/3-8[8:1],3/6-3[8:1],6/1-5[8:1],1/4<7[8:1],
4/3b>8[8:1],3/6-1[8:1],6/2-5[8:1],2/8<5[8:1],
8/4>1[8:1],4/6<1[8:1],6/2>5[8:1],2/7-4[8:1],
7/3b-8[8:1],3/6-1[8:1],6/2-5[8:1],2/7,
{8}4/8h[8:3],3,2,1,7/2h[8:3],6,5,4,
5b/1,3,7/2,5,6/4,3,5/2,6,
7/5,3,4/2,5,3/6,4,7/2,1,
6b/8,2,7/1,6,8/3,4,6/2,5,
7/3,2,6/4,7,2/5,6,7/3,6,
3b/5h[8:1],3,3/7h[8:1],3,6/4h[8:1],6,6/3h[8:1],6,
2b/5h[8:1],2,2/6h[8:1],2,7/3h[8:1],7,7/1h[8:1],7,
2b,7,2,7,{16}1b,8,1,8,1,8,1,8,
1b,2,3,4,5,6,7,8,{32}1,2,3,4,5,6,7,8,1,2,3,4,5,6,7,8,
{8}1-7[8:1],5,1-5[8:1],4,{4}6h[8:1]/1-3[8:1],{8}6/1<6[8:1],5,
1b-3[8:1],5,1-5[8:1],6,{4}6h[8:1]/1-7[8:1],{8}6/1>4[8:1],5,
1b-7[8:1],5,1-5[8:1],6,{4}6h[8:1]/1-3[8:1],{8}6/1-7[8:1],5,
1-3[8:1],5,1-7[8:1],5,{4}6h[8:1]/1-3[8:1],{8}6/1<6[8:1],5,
1b-3[8:1],5,1-5[8:1],6,{4}6h[8:1]/1-7[8:1],{8}6/1>4[8:1],5,
1b-7[8:1],5,1-5[8:1],6,{4}6h[8:1]/1-3[8:1],{8}6/1<6[8:1],5,
1b-3[8:1],5,1-5[8:1],6,{4}6h[8:1]/1-7[8:1],{8}1/6,5,
6,3,6,3,{16}5,4,5,4,6,3,7,2,
{8}8b-2[8:1],3,8-4[8:1],3,{4}3h[8:1]/8-6[8:1],{8}3/8>3[8:1],4,
8b-6[8:1],4,8-4[8:1],3,{4}3h[8:1]/8-2[8:1],{8}3/8<5[8:1],4,
8b-2[8:1],4,8-4[8:1],3,{4}3h[8:1]/8-6[8:1],{8}3/8-2[8:1],4,
8-6[8:1],4,8-2[8:1],4,{4}4h[8:1]/8-6[8:1],{8}8/4,3,
2/5b,3,7/2,6,{16}4,5,4,5,{8}3,6,
7/4,2,1/8,7,{16}8,1,8,1,{8}7,2,
6/3,7,5/3,2,6/1,7,8/2,1,
{32}7,6,5,4,3,2,1,8,7,6,5,4,3,2,1,8,2,3,4,5,6,7,8,1,2,3,4,5,6,7,8,1,
{1}2b/6b,
E
