&title=神々の疵痕
&artist=東京アクティブNEETs
&first=0
&des=Kurene_SaKagiyama
&lv_5=13+
&inote_5=(120)
{1},
{4},,,{8}1b/8h[4:1],{32}7,6,5,4,
{16}3-6[8:1],,,7h[16:5],,,,,3-7[8:1],,,6h[16:5],,,,,
{16}3-8[8:1],,,5h[16:5],,,,,3h[16:3],4,,4h[16:5],,,{32}5,6,7,8,
{16}1>4[8:1],,,8h[16:3],,,,,8V24[8:1],,,7h[16:3],,,,,
{16}7q4[8:1],,,6h[16:3],,,,,6qq4[8:1],5,,5h[16:3],,,,,
{16}5-8[8:1],,,6h[16:3],,,,,7-2[8:1],,,8h[16:3],,,,,
{16}1-4[8:1],,,2h[16:3],,,,,3h[16:3],4,,4h[16:5],,,{32}3,2,1,8,
{16}7<5[8:1],,,8h[16:3],,,,,8<4[8:1],,,1h[16:3],,,,,
{16}1<3[8:1],,,2h[16:3],,,,,2b<2[4:1],,,,,,,,
{16}7,,7,,8<5[8:1],,8,,8q3[4:1],,,8,,,,,
{16}4,,4,,3-8[8:1],,3,,3pp7[4:1],,,3,,,2,,
{16}2h[4:2],,,,1qq7[8:1],,1,,1q3[4:1],,,1,,,,,
{16}5,,5,,6qq2[4:1],6,,6h[16:5],,,,,,,,,
{16}1-5[8:1]/8,,8,,1-3[8:1]/7,,7,,1p7[16:3]/6,,,1,,,,,
{16}8-4[8:1]/1,,1,,8-6[8:1]/2,,2,,8pp4[16:3]/3,,,8,,,,,
{16}7h[4:2],,8,,1pp1[4:1],,1,,1p7[4:1],,,,,,,,
{16}5,,5,,4>5[4:2],4,,4h[16:9],,,,,,,,,
{16},,2,2h[8:3],,6,5,,5,6h[8:1],,{32}1,1,{16}7,5,4,2,
{16}1b,,8,8,,7,,6h[4:1],,,,5h[16:5],,,3,,
{16}3h[16:3],,,4h[16:3],,,7h[16:3],,1V74[8:1]*V36[8:1],1,,1,,,,,
{16}3,,2,2,,1,,8h[16:6],,,,5>6[16:9],,3h[16:11],,5,
{16},,,,,,,,,,3V17[8:1],,,3pp7[4:2],,,
{16}3,,,,,,,,,1h[16:7],,,2,,3,,
{16}4h[8:5],,5,,6,6,,7>2[8:1],,,7<4[8:1],,,7pp4[4:1],,,
{16}7,,,,,,,,36,,,3v6[8:1]/6v3[8:1],,,3bV15[4:1]/6bV84[4:1],,
{16},,,,,,,,1pp3[8:1],,1qq7[8:1],,1-5[8:1],,1,,
{16}1b,,8,8>4[8:1],,7,,6h[4:1],,,5,5h[16:5],,,3,,
{16}3h[16:3],,4,4h[16:3],,,8,,4V27[8:1]/8V63[8:1],37,,48,,,,,
{16}26,,1/5h[16:5],1,,8,,7<2[16:5],,,,3>8[16:3],,1<2[16:7],,1h[16:9],
{16},,,,,,,,,,8<4[8:1],,,8q3[4:2],,,
{16}8,,5,5,,6,,6,,6h[16:5],,,7<4[8:1],,8,,
{16}1,,1h[8:4],,3,3,,2<7[8:1],,,2>5[8:1],,,2qq5[4:1],,,
{16}2,,,,,,,,37,,,3-7[8:1]/7-3[8:1],,,3bpp6[4:1]/7bpp2[4:1],,
{16},,,,,,,,7,8,6,1,5,2,34,,
{16}3b/4h[8:1],,,2,4h[8:1],1,,2,2h[4:1]/5h[8:1],,,,5h[8:1],,2,,
{16}2/6h[8:1],,,1,6h[8:1],2,,3,3h[8:3]/5h[8:1],,,,5h[8:1],,,,
{16}7h[8:1]/4h[8:1],,,7,4h[8:1],,7,,6h[4:1]/3h[8:1],,,,3h[8:1],,7,6,
{16}5h[8:1]/2h[8:1],,,5,2h[8:1],,5,,3h[16:1],5,4h[16:1],6,5h[8:1],,6,,
{16}5/6h[8:1],,,4,6h[8:1],3qq8[4:1],,3,3/7h[8:1],,,,7h[8:1],,2,,
{16}2/6h[8:1],,,1,6h[8:1],2q3[4:1],,2,2/5h[8:1],,,,5h[8:1],,,,
{16}7h[8:1]/4h[8:1],,,7,4h[8:1],,7>2[8:1],,7/5h[8:1],,,,5h[8:1],,1,8,
{16}7h[8:1]/4h[8:1],,,7,4h[8:1],,7,,3h[16:1],7h[16:1],4h[16:1],8h[16:1],5h[8:1],,1,1,
{16}1b/5h[16:7],8,7,6,,4,,4h[16:9],{16},{20}3,,2,,{16}1,{20}8,{16},7<3[8:1],
{16}8h[16:3],,7,7,,1h[16:7],,2h[16:7],,,,,,,,,
{16}1/5h[16:5],2,3,4,,4h[16:11],,5,{12},6,7,8,1,2,
{12}2>5[8:1],1,1qq5[4:1],28,8,1b,{16},,4,,3,,2,,
{16}7/1h[16:7],6,5,4,,4,,4h[16:9],{16},{20}8,,7,,{16}6,{20}5,{16},3V57[8:1],
{16}2h[16:3],,3,3,,1h[16:7],,8h[16:7],,,,,,,,,
{16}5/1h[16:5],6,7,8,,8h[16:11],,1,{12}1,2,3,4,5,6,
{4}6b<4[4:1]*V82[12:2],,8bw4[8:1],8b,
{16}2b>5[8:1],,2,,1<6[8:1],,1,,1q4[4:1],,,1,,,,,
{16}5-8[8:1],,5,,4-1[8:1],,4,,4pp8[4:1],,,4,,,3,,
{16}3h[4:2],,,,2qq8[8:1],,2,,2q4[4:1],,,2,,,,,
{16}6,,6,,7qq3[4:1],7,,7h[16:5],,,,,,,,,
{16}2-6[8:1]/1,,1,,2-4[8:1]/8,,8,,2p1[16:3]/7h[16:3],,,2,,,,,
{16}7-3[8:1]/8,,8,,7-5[8:1]/1,,1,,7qq4[16:3]/2h[8:3],,,7,,,,,
{16}8h[4:2],,3,,2qq2[4:1],,2,,2q4[4:1],,,,,,,,
{16}3,,3,,4<3[4:2],4,,4h[16:7],,,,,,,,,
{16}4b,,45,,4,,46,,4h[16:3]/7,,7,7h[16:5],,,,{32}3b,2,
{16}1,,18,,1pp5[4:1],8,1,,18,,7,7,,6,6h[4:1],,
{32}2,1,8,7,,5,4,3,{16}2b-6[8:1]/6b-2[8:1],,2bV83[4:1]/6bV47[4:1],,{4},,
{32}1b,2,3,4,1b/5,8,7,6,{16}1-4[8:1]/5-8[8:1],8b/4b,,1b/5b,{16},,,,{32},,,,1,8,1,8,
{8}1-5[8:1],{32}1b<6[8:1],2,3,4,{16}1/5,,1,,4w8[8:1],,,4,,,,,
{32}8-4[8:1]/4b,7,6,5,4-8[8:1]/8b,3,2,1,{16}8qq5[4:1]/3,,3,,2,,1b,1b,,,1h[8:3],,
{16}5b<1[4:1],,,,5,2,3,4,5h[8:3],,,1,{32}1,2,3,4,,6,7,8,
{16}1/5b,,1b/5,,1q7[4:1]/5q3[4:1],8/4,,{48}8b/4b,37,26,{16}15,,,,,,,{16}5h[4:1]/4-1[8:1],
{16}4,4,,4b,,,,4h[4:1]/5-8[8:1],5,5,,5b,,,,{16}4-8[8:1]/5-1[8:1],
{16}45,45,,4b/5b,,,,3v1[8:1]/6v8[8:1],45,36,,3b/6b,,,,{16}5h[4:1]/2-6[8:1],
{16}3,4,,2b,,,,4h[4:1]/7-3[8:1],6,5,,7b,,,,{16}2-6[8:1]/7-3[8:1],
{16}36,45,,2b/7b,,,,1-4[8:1]/5-8[8:1],48,48,,1b/5b,,,,{24}2-6[8:1]/8,1,
{24}2,13,2,3,{16}2b/4b,,,,{24}7-3[8:1]/1,8,7,86,7,6,{16}7b/5b,,,,{32}4-8[8:1]/2,3,
{32}4,5,36,4,5,6,{16}7b/4b,,,,,{32}3-6[8:1]/7-2[8:1],48,{16}15,,3b/7b,,,,{32}1,8,
{32}7-3[8:1],6,5,4,{16}3,7b,,,,{32}8,1,2-6[8:1],3,4,5,{16}6,2b,,,,{32}15,26,
{32}3v8[8:1]/7v4[8:1],48,15,26,{16}37,3b/7b,,,,,,4b/5b,,3b/6b,,2b/7b,,{48}1b/8b,2b/7b,3b/6b,4b/5b,
