&title=MESMERA
&artist=qfeileadh/空読無 白眼
&first=0.3
&des=ZOGO
&des_5=ZOGO
&lv_5=14
&inote_5=(192){4},1/2h[8:21],,8,
,7,,6,
,5,{8},,,4p5[2:1],
{6},,,,,1h[4:1],
{12},8,,2,8,1,,7,{6}7h[6:1],2,
6,{12}3,5,4h[4:1],{6},{12}6,{6}6h[6:1],3,
7,{12}2,8,1h[4:1],{6},{12}7,{6}7h[6:1],2,
{16}8,{4},{16}1/6,{24},,,,,{12}7b/5b,,{8}4b/2b,7b/8b,
{6}7b/8b,1,{12}7,1,{4}8h[4:1],{12}2,2h[6:1],,{6}7,
3,{12}6,4,{4}5h[4:1],{12}4,6,3,
{6}7,2,{12}7,1,{4}8h[4:1],{12}2,2h[6:1],,{6}7,
1,{12}8/3,3h[12:1]/8h[12:1],{4},{8}2b/4b,3b,
7b/5b,6b,2b,7b,{16}1-5[7.3438##0.1562]/8-4[7.3438##0.1562],{8},{16}1h[#7.109375]/8h[#7.109375],,,,,,,,,,,,,
{1},,,,,{6},6,
{12}3,5,
{6}4,{12}6,6h[6:1],,3,,7,,2,8,1h[4:1],
{6},{12}7,7h[6:1],,2,,6,,3,5,4h[4:1],
{6},{12}6,6h[6:1],,3,,5,{48},,,,,,,,,,,4/7,{4},{6}6b/8b,
{24}1b/3b,{12},{24}6b/5b,{12},6b/5b,,4,,6,
4,5h[4:1],{6},{12}3,3h[6:1],,6,{24},2,{6},{12}7,
1,8h[4:1],{6},{12}1,7,2,6,,3,,6,
4,5h[4:1],{6},{12}3,3h[6:1],,6,,{4}4,
{12}5/6,6h[6:1],{24},,,,,{16}5,7,5,7,4,6,4,6,3,7,
{8}2,{16}8,1,8,1,{32},,,7,,2,,7,,2,{8},{16}6,3,6,
{32}3,{8},{32}5,,6h[32:5],{8},{16}4,3h[32:5],{32},,,7,,8h[32:5],{8},{16}3,2,1,
8,7,6,5,{4}4b/8b,{1},,{4},,{8},6/1b>4[8:1],
,6,,6,,6,
,6,,6,,6,,6,
,6,,6,,6,5,6,
{4}4,4/6h[8:1],4,4,
4,4/7h[8:1],4,4,
4,4/8h[8:1],{8}4,8qq5[8:9],{4}4,
4,4,4,4,
4,4,{8}4,{16}6,6,3,3,7,7,
2,2,8,8,1,1,{8}7h[8:1],{24}3,4,5,6,7,8,{12}1,{24}5,4,3,2,
1,8,{12}7,,{4}4/8,3/7,{8}2/6,8/4,
,7/3,{4}5/1,{12}7,8,5,4,1,2,
5,3,,{4}4h[4:1]/6h[4:1],{12},5h[4:1]/3h[4:1],{3},{8}4-1[8:1],
6-3[8:1],4,6,{24}8,7,6,5,4,3,{8}2,{24}6,7,8,
1,2,3,4,{12},{16}2/6,{8},{16}3/7,{8},4/8,{4}4b/8b,
{2}3-1-6[2:1],6-8-4[2:1],
4qq3[2:1],5,
{8}6,{16}6,5-1[8:1],{8}6,6,6,6,6/2,6,
3,{16}3,4-8[8:1],{8}3,3,3,3,3/7,3,
6h[4:1],{4},{8}1,7-5[8:1],8,{4}1/7,
{8}2h[4:1],{4},{8}5,3-1[8:1],4,{4}5/3,
{16}7,8,7,8,7,8,7,8,{4}6/1,{16}3/8,{8},{16}2/1,
{8},8/7,{16},3/6,{8},{2}4bq8[8:1]/5bp1[8:1],
{4}2-7[8:1]/6-3[8:1],2/6-4-2[4:1],{8}2pp4[4:1],1,{4}1,
{8}2,2,{16}5,5,,3,{8}3,4/2,5,6/2,
{4}6<1[8:1],6/3p5[4:1],{8}5>7[2:1],6,{4}7,
{8}7p2[4:1],6,{4}5h[8:1],{8},6,{16}1,1h[8:1],{8},{4}7-2[8:1]/3-6[8:1],
7/3-1-7[4:1],{8}7pp1[4:1],6,{4}6,
{8}7,7,{16}1,1,,7,{8}7,8/6,1,2/6,
{4}2>5[8:1],2/7p1[4:1],{8}1<3[2:1],2,{4}3,
{8}3p6[4:1],2,{4}1h[8:1],{8},2,{16}5,5h[8:1],{8},{4}8-5[8:1]/3<5[8:1],
8/3qq8[8:3],{8}3,7,{4}7h[8:1],
1-4[8:1]/6>4[8:1],1/6pp1[8:3],{8}6,2,{4}2h[8:1],
{8}3-1[8:1],{16}5,5,{4}3,{8}6-2[8:1],{16}3,3,{4}6,
{8}1,8,3,6,2-5[8:1]/7-4[8:1],8/1,{4}2b/7b,
{16}2-8[8:1],5,3,4,{8}2pp2[4:1],6,,6,{4}6h[8:1],
{16}7-1[8:1],4,6,5,{8}7qq7[4:1],3,,3,{4}3h[8:1],
{16}2-4[8:1],8,1,7,{8}2p4[4:1],5,6,7,{4}8h[8:1],
{16}7-5[8:1],1,8,2,{8}7q5[4:1],4,3,2,{4}1h[8:1],
5>1[4:1],1<5[4:1],{8}5-1[8:1],4,{4}3h[8:1],
4<8[4:1],8>4[4:1],{8}4-8[8:1],5,{4}6h[8:1],
{8}5<8[8:1],1>4[8:1],5-2[8:1],1,{4}5-8[8:1],5,
{16}2,1,2,1,{24}2,3,{6}4,{48}7,{24},{48}8,{24},{16}7,8,{24}7,6,{6}5,
{24}3/7,2/6,1/5,8h[8:1]/4h[8:1],{3},{4}2-7[8:1]/6-3[8:1],6<1[8:1]/2>5[8:1],
{1}2q7[2:1]/6q3[2:1],
{2}8<2[2:1],2<4[2:1],
4<2[2:1],3h[4:1],
{16}4,6,3,5,{8}2-8[8:1],4-8[8:1],2-6[8:1],4,{4}2,
{16}5,3,6,4,{8}7-1[8:1],5-1[8:1],7-3[8:1],5,{4}7,
{16}4,6,4,6,{4}4,{16}5,3,5,3,{4}5,
4h[8:1]/7h[8:1],{12}6,5,7,3,4,2,7,1,8h[4:1],
{6},{12}1,2,3h[4:1],7,6,5h[4:1],4,4,,6h[4:1],
3,3,,8,1,8,2,4,3,7,5,6,
4,4,7,2,8,1,6,5,7,3,4,2,
8,8,1,2,3,7,6,5,{6}2b/4b,5b/7b,
{8}2b/1b,2b/1b,{12}8,7,6h[4:1],2,3,4h[4:1],5,{6}5,
{12}3h[4:1],6,{6}6,{12}1,8,1,7,5,6,2,4,
3,5,5,2,7,1,8,3,4,2,6,5,
7,1,1,8,7,6,2,3,4,6h[8:5],{6}5h[24:13],
{12},,,,,,,4,3,2h[4:1],6,7,
8h[4:1],1,{6}1,{12}7h[4:1],2,{6}2,{12}5,4,5,3,
1,2,6,8,7,1,1,6,3,5,4,7,
8,6,2,1,3,5,5,4,3,2,6,7,
{8}8,{16}2,1,2,8,2,7,2,6h[8:1],{8},{12}4,3,2h[4:1],
6,7,8h[4:1],1,{6}1,{12}7h[4:1],2,{6}2,{12}5,4,
5,3,1,2,6,8,7,1,1,6,3,5,
4,7,8,6,2,1,3,5,5,4,3,2,
6,7,{48}8,{8},{48}4,{24},{16}5,4,{32}5,{8},{32}3,,6,,3,,6,{8},{16}2,
7,2,7,{8},{16}1,2h[32:5],{32},,,8,,7h[32:5],{8},{16}3,{8}4h[32:5],
{32},6,,5,{16},3,{8}4,{32}7,{16},{32}2,{16},8,{32},1,{16},7,7,2,2,
6,6,3,3,{8}5s1[3.75##0.1562]/4z8[3.75##0.1562],{24}8b/1b,7/2,6/3,{2}5h[4:11]/4h[4:11],
{1},,{4},,{12},7/2,
3,4,5/8,7,
{16}6/1,2,3,7,6,5,{32}1,2,3,4,5,6,7,8,{8}1/5,,4bp7[8:5]/8bp3[8:5],
,,,,,,,,,5,
{16},4,{8},{16}3,{8},{16}6,{8},7,
{16},8,{8},{4}1h[16:5],{16},5,{4},{24}8,7/1,6/2,
{1}5h[1:2]/3h[1:2],
E
