&title=君と夏色っ!~わんダフルバケーション~
&artist=コバヤシユウヤ(IOSYS)
&first=-0.069
&des_5="WAN"derful Mino >w<
&lv_5=14
&des="WAN"derful Mino >w<
&inote_5=(155){4}
,{32}E1,E2,E3,E4,E5,E6,E7,E8,{2}E1/Cf,
{8},,,,6/4,5/3,7/4,8b-4[8:1]/1b-5[8:1],
,8b/1b,{16},,6,6,{8}3h,3h,3h,{16}6,7/5,
,,{8}5/4,6/3,7/2,{4}8b-4[8:1],8b<5[8:1]*>3[8:1],
8bw4[8:1],A8f,{8}3/1-5[8:1],2,8/1,7,
{16}3/4,3,,5/6,,,{8}8/1-5[4:3],,6,{16}3,3,,7,
1-5b[8:1],8,2,7,{4}1b,{8}6/8-4[8:1],7,8/1,2,
{16}6/5,6,,3/4,,,{8}8/1,,3,{16}6/5,6/5,,3/4,
{8}4/3,5b/2b,{48},,,,,,,,,,,,8x/1x-5[8:1],7x/2x,6x/3x,5x/4x,,,,,,,,,{8}1,{16}7,7,
E3f/B3/B2,,,4/B7/B6/E7f,,,{8}5/B8/B1/E1f,,1-5[8:1],5V31b[8:1],1,
,,2/7,8/1,{48}1x/8xz4[8:1],7x/2x,6x/3x,5x/4x,,,,,,,,,{8}8,{16}2,2,
E7f/B6/B7,,,5/B2/B3/E3f,,,{8}4/B1/B8/E1f,,1/2,3/8,4/7,
{4}6-1[8:1]/5-2[8:1],6/5,{8}7/5,6,5/4,{16}2,2,
7,1,5,3,{8}8,7/1-5[8:1],3/5-1b[8:1],7/1,{16},,8,8,
,2,,5,{8}4,6/3,2/4,3,5/4,{16}6,6,
4,5,,1/8,{8}7/2,{16}4,3,{12}8b,5,5,1b,3,3,
{4}7b<3[8:1]*>3[8:1],A7f,{8}1/2>5[8:1],3/8,1/2,8,
{16}3,3,,6,5,7,{8}4,8/7<4[8:1],6/1,8/7,{16}1,1,
,,{8}7/E4,1/E6,8/E3,5/6-1[8:1],7/4,6/5,{16}4,4,
,7,,1,{8}8,{16}1,2,{8}3h[4:1],4,6h[4:1],5,
1h[4:1],3,8h[8:1],5,{16}3,3/4,,6,{8}6/5,{16}3,4/3,
,6,{8}6/5,{16}3,4/3,,,6,5/7,,3,{8}4/2,{16}6,7/5,
,3,{8}4/2,{16}8/1,7b/2b,,,,,,,,,{8}1,
{4}1w5[8:1],A1f,{8}8-4[8:1],1/7,8/2,{16}1,1,
,6,{8}6,2>5[8:1],8-4[8:1],2-6[8:1],8,2,1bV75[8:1]*V35[8:1],
,1b,,7,6/4,5/3,8/2,{16}7/1,7/1,
,,{8}5/4,6/3,7/2,{48}1x/8,2,3,4,,,,,,1x>6[48:5],2>7[48:5],3<8[48:5],{8}4<1[48:5],1x,
,,{4}8h[8:1]/1h[8:1],{8}7/4,{16}6,5,{8}6,5/4,
4/3,1h[16:1]/E7/B7/B6,1h[16:1]/E7/B7/B6,{16}2,3,{8}4/8,{16}6,5,{8}7,8/1,
4/3,5h[16:1]/B2/E2/B1,{4}5h[16:1]/B2/E2/B1,{8}1/7-4[8:1],6,7/1-5[8:1],2,
1/8,7,,1,{12}8/2,8/2,8/2,7/1,7/1,7/1,
{4}8b-5[8:1]/2b-5[8:1],8b/2b,{8}1-5[8:1],8/2,1/7,{16}8,8,
,3,{8}3,5/1-5[8:1],3/7-3[8:1],1>4[8:1],7,1,8b<4[8:1]*>4[8:1],
,8b,,2,3/5,4/6,1/7,{16}2/8,2/8,
,,{8}4/5,3/6,2/7,{48}8x/1,7,6,5,,,,,,8x<3[48:5],7<2[48:5],6>1[48:5],{8}5>8[48:5],8x,
,,{4}1h[4:1],{8}8b,{16}2,2,,,{8}5h[16:1]/4h[16:1],
5h[16:1]/4h[16:1],{16},,,,1,8,1,,,7/2,,,{8}6/3,
{12}5b,2,2,4b,8,8,{8}8h[4:1]/4h[4:1],,,5/1,
{4}5h[8:1]/1h[8:1],{8}5/1,6/2,{4}1bq5[8:1]/5bq1[8:1],1b<6[8:1]`5b>2[8:1],
1bq5b[8:1]/5bq1b[8:1],1b/5b,{8}8/4,7,5/1,{16}2,2,
,6/5,{8}6,5/4,4/3,2/8,7/1,6/4,5b-8[8:1]/3b-8[8:1],
,5b/3b,{16},,6,6,{8}2h,2h,2h,{16}8,8/1,
,,{8}8/1,7/2,6/3,{4}5/4b-8[8:1],4b<8[8:1]*>8[8:1],
4bw8b[8:1],A4f,{8}8/1,2,1/8,7,
{48}1bx/8x,2,3,4,,,,,,2bx,3,4,{8}5,{48}1bx,2,3,4h[16:9],,,,,,,,,{8}8,{16}7,7,,6,
{8}6,{16}4,5,3,5,{8}2,1/8,7,8/1,2,
{48}8bx/1x,7,6,5,,,,,,7bx,6,5,{8}4,{48}8bx,7,6,5h[16:9],,,,,,,,,{8}1,{16}2,2,,3,
{4}3,8b/1b,{8}8/4,{16}4,8,4,7,4,6,
4,5,4,3,4,2,4,1,{8}4h[8:1],8h[8:1],3h[8:1],6h[8:1],
{2}2h[8:3],{8}8/1,{16}1,7,3,5,2,8,
4,6,1,8,2,7,3,6,{12}4,4,4,5x/4x,5x/4x,5x/4x,
{4}5bxs1[8:1]/4bxz8[8:1],5b/4b,{16}2/5,2,{8}6,4/3h[8:1],7,
{16}2/5,2,{8}6,4/3h[8:1],7,{16}1,8,3,6,2,7,4,5,
3,6,3,6,{4}3,{8}6,6/5,{16}3,4/3,,5,
{8}5/4,{16}3,4,{8}2,8/1,{16}6,7/5,,3,{8}4/2,{16}6,7/5,
,3,{8}4/2,{16}6,7/5,,,2,4/3,,7,{8}6/5,{16}2,4/3,
,7,{8}6/5,{16}2,3/4,{48},,,,,,8b/1b,7/2,6/3,5/4,{4},,,{16},,{24},{8}4/5h[4:1],
3,2,8/1h[4:1],
,7,,1,8/1-5[8:1],8,7/1>4[8:1],7,
1/6,6,5/1,5/1,{48}1/4,2,3,4,,,,,,8/5,7,6,{8}5,{48}1w5[8:3],2/8,3/7,4/6,{24}5,
{4},,,{16},,{8}1,
{4}1w5[8:1],A1f,{8}2/8-3[8:1],1,8/7,{16}6,6,
,4/5,{8}4,8-4[8:1],2-5[8:1],8,2,8,{48}8p3[8:1]*q5[8:1],7/1,6/2,5/3,{24}4,
,,,{8}8b,,4,5/3,4/6,5/2,{16}7/4,7/4,
,,{8}5/4,6/3,7/2,{48}1x/8,2,3,4,,,,,,1x>6[48:5],2>7[48:5],3<8[48:5],{8}4<1[48:5],1x,
,,{4}1h[8:1]/8h[8:1],{8}7/4,{16}6,5,{8}6,5/4,
1/E6/B5/B6,7h[16:1]/B3/E4/B4,2/B7/B6/E7,{16}2,3,{8}4/8,{16}6,5,{8}7,8/1,
5/B2/B3/E3,4h[16:1]/E7/B6/B7,{4}5h[16:1]/B8/E1/B1,{8}8/1-6[8:1],2,1/7-4[8:1],8,
7/2,1,,8,{12}7/1,7/1,7/1,8/2,8/2,8/2,
{4}7b-4[8:1]/1b-4[8:1],7b/1b,{8}7/1-6[8:1],8,1/2,{16}3,3,
,5/4,{8}5,1-5[8:1],7-4[8:1],1,7,1,{48}1-4<5[8:1]*-6>5[8:1],2/8,3/7,6/4,{24}5,
,,,{8}1b,,5,4/6,5/3,4/7,{16}2/5,2/5,
,,{8}4/5,3/6,2/7,{48}8x/1,7,6,5,,,,,,8x<3[48:5],7<2[48:5],6>1[48:5],{8}5>8[48:5],8x,
,,{4}1h[4:1],{8}8b,{16}3,3,,,{8}5h[16:1]/4h[16:1],
5h[16:1]/4h[16:1],{16},,,,6,5,6,,,7/5,,,{8}6/4,
{12}5b,2,2,4b,8,8,{8}8h[4:1]/4h[4:1],,,5/1,
{4}5h[8:1]/1h[8:1],{8}5/4,8/1,{4}1b-3[8:1]*-5[8:1],1b-6[8:1]*-4[8:1],
1b-5[8:1]*-7[8:1],1b,{8}6/4,7,6/4,{16}3,3,
,5/4,{8}5,7/4,5/2,8/1,7/2,6/3,5b-8[32:3]/4b-1[32:3],
,5b/4b,{16},,7,7,{8}3h,3h,3h,{16}6,5/4,
,,{8}4,3,2,8/1>4[8:1],7,6,5,
4x/5x<8[8:1],3,2,{16}1,1,{8}7h,7h,7h,{16}6,7/5,
,,{8}5/4,6/3,7/2,{48}8/2,3,4,5,,,,,,,,,7/1,6,5,4,,,,,,,,,8/1,
7/2,6/3,5/4,{4},{16},,{24},{8}3/1-5[8:1],2,8/1,7,
{16}3/4,3,,5/6,,,{8}8/1-5[4:3],,6,{16}3,3,,7,
1-5b[8:1],8,2,7,{4}1b,{8}6/8-4[8:1],7,8/1,2,
{16}6/5,6,,3/4,,,{8}8/1,,7,{16}6/5,6/5,,3/4,
{8}4/3,5bh[4:1]/2bh[4:1],,,{4}8b/1b,{16}8,2,{8}2,
{48}1b/3b,4/8,5/7,6,,,,,,6b/8b,5/1,4/2,{8}3,{48}1b,2/8,7/3,6/4,{24}5qq5b[24:19]*pp5b[24:19],
E
