&title=イニシャル
&artist=Poppin'Party
&first=0.82
&lv_5=1
&des_5=Img_ct
&inote_5=
(192)
E
&lv_6=14
&des_6=Ic_
&inote_6=
(193){8}6,{16}3,4,{8}3,7,{16}4,5,{8}4,8,8,
2/1,{16}2h[16:1],1h[16:1],2h[16:1],1h[16:1],8h[16:1],3h[16:1],8h[16:1],3h[16:1],7h[16:1],4h[16:1],7h[16:1],4h[16:1],6h[16:1],5h[16:1],
{4}6b,7b/1bp4b[16:3],{8},8b<5b[16:3],,,{2}3bq8>3b[8:5],
{8}4,5,6,7h[8:3],
,3,{4}4,{16}5h[8:3],,,6,,,{8}7h[2:1],
,3,2,1,{16}6,3,5,4,6,3,7,2,
{4}8,6b/1bp3b[4:1],{8},4bp7b[4:1],,,{2}2bp5p1b[8:5],
{8}8,7,6,5h[8:3],
,2,{4}3,{16}8b/B2f/E2/E3,,,4b/B7f/E7/E8,,,{8}6b/B3f/E4/E3,
2bh[1:1]/B6f/E7/E6,{16},,,,1x,8x,7x,,,6,,,{8}5,
{4}5h[8:15],{8}3,3,{4}3,{8}2,2,
,4,3,2,1,2,3,4h[8:13],
,6,6,6,7,6,8,7,
,1,8,7,6,3,2,1h[4:3],
,,{4}5x,{8},5,6x,7h[4:1],
,8,1x,2,1,2,1x,8,
,6,6x,6,5,3,5x,4h[4:1],
,6,6/3,3,7/2,2,8/1,8,
1h[8:1],6,3h[8:1],7,1h[8:1],6,3h[8:1],7,
2h[8:1],6,4h[8:1],8,2h[8:1],6,4h[8:1],8,
7h[8:1],2,5h[8:1],3,7h[8:1],2,5h[8:1],3,
8h[8:1],4,6h[8:1],2,4,4x/7,3,3x/8,
2h[8:1],1,2h[8:1],8,7h[8:1],3,7h[8:1],4,
3h[8:1],5,3h[8:1],7,6h[8:1],2,6h[8:1],3,
8/2h[8:1],6,4/7h[8:1],2,5/3h[8:1],7,4/6h[8:1],2x,
,5/4,5/4,6/3,6/3,{16}3,4,{8}2,{16}6,5,
{4}7-1-4[4:1],{8}3,3-5-8[4:1],,6,{4}6-1-4[4:1],
{8}2,2-5-8[4:1],,6,{4}7-3[8:1],7,
{8}4h[8:3],2,1,8,7h[8:3],3,2,1>6[4:3],
,B2,B1,B8,B7,B6,B5,B4,
,,4,7h[4:1],,1h[4:1],4,6h[4:1],
3,2h[4:1],7,7,1/8,E1,C,E5,
,7h[8:3],5,3,1h[8:3],3,5,7,
,3/5,2/6,1/7,{16}8,2,6,4,1,7,2,5,
{4}4,{24}2b/7h[24:25],B2,C,B6,,,,,,5b,B5,C,{4}B1,
{24}8b>2-4<5-7>8[48:31],B8,C,B4,,,,,,,,,{8}1,2,3,4,
,2<8p4[3:1],{4}8,{16}7,,,6,,,{8}5p1<7[48:19],
,4,3,2,2,2,{16}7,1,8,2,
{4}7,{24}6b/3h[16:17],B6,C,B2,,,,,,1b,B1,C,{4}B5,
{24}7bpp4[48:29],B7,C,B3,,,,,,,,,{8}4,3,2,1h[8:3],
,7,{4}7-3>4[8:7],{16}7,,,4h[6:1],,,,,{8}2,
2,2,2,{16}8,1,6,3,7,2,5,4,
{4}6,{24}8b/5h[8:9],B8,C,B4,,,{8}3,{24}2b,B2,C,{4}B6,
{24}7b>3[8:3],B7,C,B3,,,,,,,,,{8}6,5,{16}4,5,4,5,
4h[2:1],,,7,,,{8}8,{4}1,1h[8:5],
{16}3,,,4,,,{8}5,{16}6,7,6,7,6,7,6,7,
{2}5,4,
3,{8}2,{16}8,1,{4}2b/7b-3-7b[4:1],
{8}2b,A3f/2b-6-2b[4:1],,8b,{4}A6f/8b-4-8b[4:1],{8}1b,A4f/1b-5-1b[4:1],
,7b,{4}7b/A5f,7b-4-1b[4:1]/2b>3<4<5<6<7>8>1>2b[2:3],7b/2b,
,,,,,7,
7,{8}7,4x/6x,
,7,8,{16}6,5,{8}6,4,3,2x/5x,
,2,1,{16}3,4,{8}3,6,7,8x/1x,
,8-6[8:1],7,1-3[8:1],2,7-5[8:1],8-2[8:1],7-3[8:1],
8-4[8:1],7-5[8:1],8<2[2:1],7,8,,,6h[4:1],
,,2/8,7,2/5,3,7/1,6,
7/4,3,5/2,7,8/1,3,6,7/1,
6,4,4,8/2,3,5,5,3/6h[2:1],
,4,4,4,{16}4,5,3,6,2,7,{8}1x,
,2,1,{16}3,4,{8}3,6,7,8x/1x,
,7,8,{16}6,5,{8}6,4,3,2x/8x,
{16},,5,4,5,4,5,4,6b/B4f,,,3b/B6f,,,{8}7b/B2f,
{4}1b/E8f,{8}6/4,{16}6,7,{8}5,{16}3,4,{8}2,2/4,
,6/5,4,3,{4}1/2,{8}5/2<8-6>4[2:1],5/2,
,,{4}4-8[4:1],8-2-7-3-6-4[2:3],7h[8:1],
{8},6,{4}6h[1:1],{16},,,,,,,,,,,,,,,,2,
4,2,4,2,4,{8}3,
,3/5,1,4/6,8,2/5,3,7/4,
6,1/8,3/5,1/8,{16}4/6,7,3,8,{4}2,
{48}7b,E8,B8,B1,{24}E2,{48}3b,E4,B4,B5,{24}E6,{48},,,,,,1b,E1,B8,B7,{24}E7,{48}5b,E5,B4,B3,{12}E3,{24},,{8}6b/2b,{48}6b/2b,D3/D7,A3/A7,D4/D8,A4/A8,D1/D5,
,,,,,,,,,{16}4,,,,4,,,,4,,1<5[4:1],,,,5>3[8:1],
,3>1[8:1],,1-7[8:1],,7-5[8:1],,,,,,8>4[4:1],,,,4<6[8:1],
,6<8[8:1],,8-2[8:1],,2-4[8:1],,,,,,8h[8:7],,,,1,
,3,,2,,4,,3,,5,,4h[2:1],,,,,,5,
,5,,5,4,6,3,7,2,8,,,,7,
,2/5,,7,,3/5,,7,,4/5,,2,,6/4,
,2,,7/4,,2,,1,,8,8,8,,1/7,,,,5,
5,5,,6/4,,,,3,3,3,,4/2,,,,1,
3,2,4,3,5,4,6,5,7,6,,1/8,,,,7-3[8:1],
,1-6[8:1]*-4[8:1],,7,,1,,,,,,5/4,,,,7-1s5[3:1],
,2-8z4[24:5],,7,,2,,,,,,6/3,,,,1,
,1,,7,1,{32}8bx,7x,{16}6x,{32}1bx,2x,{8}3x,{32}7bx,6x,{16}5x,,1b-4-7>4b[8:5],
,,,6b,,6b,,,,,,,,8,,,,6,
,4/5,,,2,1,,7,,1/6,,5,,4,
,3,,2,,1,8,2,,7,,7,,4/6,,(192)2,
,2,,2,,2,,3/5,,6,,6,,2/7,,,,1b/8b,
,8b/1b,,1b/8b,,8b/1b,,1b/8b,,8b/1b,,8b/1b,{1},,,{16},,{32},E2,
,,,E3,,,,E4,,,,E5,,,,E6,,,,E7,,,,E8,,,,,,,,1,
,,,1,,,,1,,,,1,,,,1,,,,1,,,,1,,,,2,,,,2,
,,,2,,,,2,,,,2,,,,3,,,,4,,,,5,,,,6,,,,7,
,,,7,,,,7,,,,8,,,,7,,,,6,,,,5,,,,,,,,1/2,
,,,3/4,,,,5/6,,,,7/8,,,,B8/B7/B6/E8/E7/E1,,,,E1/B1/E2/B2/E3/B3,,,,B5/B4/E5/D5/A5/A4,
E
&lv_7=1
&des_7=
&inote_7=
(192)
E
