&title=Nightmare
&artist=M2U
&first=0.08
&lv_5=13+
&des_5=Blackbriar
&inote_5=
(190){4},,,,{1}7b>7[0.6316##4.1053]/2b<2[0.6316##4.1053],
,,,{8}1b/8b,
,,7h[8:3]/3V52[0.6316##0.4737],,,{4}3,
{8},6,,8,,,,,7<4[0.6316##0.4737],
3,7,2,,1pp4[0.6316##0.9474],,1,
,,{4}5,{2}6,
{8}8-4[0.6316##0.4737],,,8,,1,2,3,
,6p3[0.6316##0.6316],,6h[4:1],,,,7,
7,8,8,1,,,{4}2,
{8},7-4[0.6316##0.2368]/3-8[0.6316##0.2368],6/2,1/5,,7/3,,,8b/1b,
,,1/8,8,7/2pp5[0.6316##0.9474],{4}2,
{8},5,{4}6,{8}6,7,,7pp5[0.6316##0.6316],
8,,,1,2,3,{4}4,
{8},7,{4}4/7,{8}2/5,2,,6<3[0.6316##0.7895],
3/6,,,4,5,4,{4}5,
{8},8,{4}1/8,{8}7/2,7,,3p5[0.6316##0.6316],
3/6,6,,7,7,8,{4}8,
{8},4/8,{4}2/6,{8}5V71[0.6316##0.2368]/1V35[0.6316##0.2368],3/7,,4/8,
1b/5b,,,7/3,2-4[0.6316##0.1579]/6-8[0.6316##0.1579],6,3/7,2,
{2}2/6,{8}2-5[0.6316##0.2368]/7-4[0.6316##0.2368],1,2/7,8,
2/7,,,4,6,3,5,4,
,8<5[0.6316##0.2368],8,7,7,4>1[0.4737##0.2368],4,3,
3,{16},,,,6,5,{8}4-1[0.6316##0.2368],1,5/2,3,
4/7,,,8,1/8<5[0.6316##0.1579],1,7/2,7,
8/4>1[0.6316##0.1579],4,2/6,6,4/7-3[0.6316##0.1579],7,2/5,2,
7/1-5[0.6316##0.1579],1,2/7,7,1/6,6,7/3,3,
1b/8b,{16},,,,3,4,{8}5<8[0.6316##0.2368],6,7/4,3,
2/5,,,3,2>6[0.6316##0.2368],1,8,7,
6,{16},,,,4,5,{8}4,5,4/3,2,
6/5,7,2/8,3,7/1-6[0.6316##0.2368],6,4/5,3,
1/2,,,8,2,{16}2,3,{8}4,4,
5,5,6/2,6,7/3,7,8/4,8,
,8,8/1-5[0.6316##0.1579],2,3/4,4,1/8-4[0.6316##0.1579],7,
6/5,5,8/1,1,4/3,3,6/5,6,
{4}1b/8b,{8}1/2,1,,8,{4}8/7,
6<2[0.6316##0.3158],2<6[0.6316##0.3158],{8}6,5,4,3,
{4}2,{8}3/4,3,,6,{4}6/5,
2>5[0.6316##0.3158],5q2[0.6316##0.3947],6,{8}7,8,
{4}1,1,1>4[0.6316##0.3158],4-8[0.6316##0.3158],
8<5[0.6316##0.3158],5-1[0.6316##0.3158],1,8,
{8}5,5,5/4,5,5/3,5,2/5,5,
1/5,1,5/1,1,6/1,1,7/1,1,
{4}1b/8b,7,6-2[0.6316##0.3158],2>4[0.6316##0.3158],
4-8[0.6316##0.3158],8<6[0.6316##0.3158],6pp4[0.6316##0.9474],1,
{8}3,2,{4}1h[4:3],,,{2}8,
{4}7/5,6/4,
{8}5/3>3[0.6316##1.5789],,,1h[8:3],,,,,{4}2,
1,8,7,
{16}6,5,{8}6,{16}3,4,{8}3,{16}7,5,{8}6,{16}2,4,{8}3,
{16}8,5,{8}6,{16}1,4,{8}3,{16}8,1,2,3,4,5,6,7,
{2}1b/8b<5[0.6316##0.6316],5p2[0.6316##1.2632],
4,2<7[0.6316##0.6316],
7qq4[0.6316##1.2632],2,
4>1[0.6316##0.6316],1p7[0.6316##0.6316],
5b,{4}1q6[0.6316##0.6316],{8}8,7,
{2}6<2[0.6316##0.6316],2>6[0.6316##0.6316],
6,{4}1<6[0.6316##0.3158],6>4[0.6316##0.3158],
{1}4pp4[0.6316##0.4737]*qq4[0.6316##0.4737],
{2}8b/1bpp4[0.6316##1.2632],6,
4<8[0.6316##0.6316],8p2[0.6316##0.6316],
2p7[0.6316##0.6316],7<3[0.6316##0.6316],
3qq8[0.6316##0.6316],{4}8,7,
{2}6q8[0.6316##0.6316],8<4[0.6316##0.6316],
4,3h[2:1],
{8}4,6h[8:3],,5,{4}1h[8:3],{8}3,8h[8:3],
,7,{4}2h[2:1],{2}6h[8:3],
{16}4b,6,4,6,3,5,3,5,1,2,3,4,8,7,6,5,
3,5,3,5,4,6,4,6,2,3,4,5,1,8,7,6,
4,6,4,6,3,7,3,7,2,8,2,8,1,7,1,7,
2,6,2,6,3,5,3,5,4,3,2,1,5,6,7,8,
2b,1,2,1,3,4,3,4,5,6,5,6,8,7,8,7,
8,1,2,3,7,6,5,4,1,8,1,8,2,7,2,7,
3,6,3,6,4,5,4,5,4,5,3,6,2,7,1,8,
2,1,3,8,4,7,5,6,3,4,2,5,1,6,8,7,
{12}2b,2,2,5,5,5,4,4,4,7,7,7,
3,3,3,1,1,1,7,7,7,5,5,5,
2,1,2,6,5,6,3,4,1,8,5,6,
2,4,3,5,7,5,1,3,1,6,4,7,
{8}8b/1b,,,2/4,3,{16}6,5,{8}6,7,
1/2,3,8/7,6,1/2,4,8/7,5,
,4,4/3,3,2/3,2,1/2,1,
{16}1/8,7,6,5,3,2,1,8,6,7,8,1,{32}3,4,5,6,7,8,1,2,
{1}3bqq8[0.6316##1.5789]/7bqq4[0.6316##1.5789],
,6pp3[0.6316##1.5789]/2pp7[0.6316##1.5789],
,5qq5[0.6316##1.5789]/1qq1[0.6316##1.5789],
,8p6[0.6316##1.5789]/4p2[0.6316##1.5789],
,5b>5[0.6316##3.4737]/4b<4[0.6316##3.4737],
E
&lv_6=14
&des_6=
&inote_6=
(190){4},,,,{1}5h[2:7]/4h[2:7],
,,,{8}8b/1b,
,,2h[8:3],,,{4}6h[8:5],
{8},7,8,1,,,,,5/4h[8:3],
6,7,8h[2:1],,3,,5h[8:5],
,,{4}1,{2}1,
{8}2/7h[8:3],,,4h[2:1],,2,1,8h[4:3],
,,,6,,6,,6h[2:1],
5,4,3,2h[8:3],,,{4}8,
{8},3/7,2/6,1/5,,8/4,,,{2}3h[4:3]/6h[8:3],
{8}6,5,{4}4h[2:1],
{8},2,{4}2h[8:3],{8}8,8h[8:3],,6,
6,6h[8:5],,2,2,2,{4}2,
{8},3h[8:1],{4}4,{8}2h[8:1],1,,7h[8:1],
8,,,5,4/5,1,{4}1/8,
{8},2,{4}6h[8:3],{8}5,3h[8:3],,4,
7h[8:3],,,1,2,3,{4}4/5,
{8},3/6,{4}3/6,{8}2/7,2/7,,1/8,
1b/8b,,,1/2,3,4,5/6,7,
8,1,{4}2,{8}4,3,2,1/8,
6/5,,,2,2/7,6,3/6,3,
,3/5,3/5,2,4/6,6/4,7,8/1,
1/8,{16},,,,1,8,{8}1,1/8,2/7,3,
3,6,{4}6,{8}5/6,5/6,8,4/3,
4/3,2,1,7/8,7/8,6/1,1/6,5,
4,7/3,7/3,8,6/2,6/2,1,6/3,
5/4,{16},,,,8,1,{8}8,8/1,7/2,6,
5,4,3,1/7,5,8/2,4,6/8,
3/1,{16},,,,2,1,{8}2,4/8,6/5,7,
7,4/6,5/3,2,3/5,6/4,7,8/1,
2/1,,,6/3,6/4,{16}7,6,{8}7,1,
2,3/4,6/5,3,8/7,2/1,7,4/5,
4/5,1,1,1/2,3/4,5/6,7/8,2,
2,8/1,7/5,6,8/1,4/2,3,8/1,
1b,1,1,{16}6,5,6,5,{8}6,6,{16}3,4,
{8}3,4,3,4,{16}7,1,{8}7,{16}2,8,2,8,
{8}2,8,8,{16}3,6,{8}3,{16}3,6,{8}3,6,
3,6,3,3,{16}7,2,{8}7,{16}7,2,7,2,
{8}7,4,4,{16}2,4,2,4,{8}2,5,{16}7,5,
{8}7,8,8,8,{16}3,4,{8}3,{16}4,3,4,3,
{8}4,6,6,{16}8,7,8,7,{8}8,8,8,
2,2,7,7,3,3,6,6,
5/4h[1:1],5,5,{16}5,6,7,8,{8}1,1,{16}1,8,
{8}7h[1:1],2,2,2,{16}2,3,{8}4,{16}5,4,3,2,
{8}1h[1:1],8,8,{16}8,7,{8}6,{16}7,6,{8}5,5,
5h[1:1],8,1,2,{16}2,1,{8}8,{16}8,1,2,3,
{8}4h[1:1],5,5,{16}6,7,8,1,{8}2,2,{16}2,1,
{8}8h[1:1],5,5,5,{16}4,3,{8}2,{16}2,3,4,3,
{8}2h[8:7],6,6,{16}8,7,6,5,{8}4,4,4,
{16}3,6,3,6,3,6,2,7,2,7,2,7,1,8,1,8,
{2}1b,{4}4,{8}7,3,
6,2,{4}5,{8}1,8,{4}1,
8,7,6,{8}3,4,
2,5,{4}1,8,{8}7,3,
{4}5,4,3,{8}8,2,
6,3,{4}5,{8}4,7,{4}2,
1,8,1,{8}5,2,
6,3,{4}7,4,{8}3,2,
1/8h[2:3],,,2,2,3,{4}3,
{8},4,{4}4,{8}3h[2:1],6,,6,
7h[2:1],,,2,2h[4:5],8,{4}8,
{8},6,{4}6,{8}7,7,5h[4:1],3,
2h[8:15],,,4,4,3,{4}3,
{8},5,{4}5,{8}7,7,,1,
{4}1h[4:7],{8}3,3,4,4,,5,
{4}5,{8}6,6,,7,{4}7,
{16}2,6,2,6,3,5,3,5,4,6,4,6,3,7,3,7,
1,8,2,7,1,8,2,7,3,6,4,5,3,6,4,5,
3,4,2,5,1,6,8,7,1,8,2,1,3,8,4,7,
5,6,4,7,5,6,3,8,5,6,2,1,5,6,4,5,
3,4,2,5,3,4,1,6,3,4,8,7,3,4,3,5,
4,5,4,6,4,7,4,8,4,1,4,2,4,3,4,5,
4,5,3,5,2,5,1,5,8,5,7,5,6,5,4,5,
4,5,4,6,4,7,4,8,4,8,4,8,3,8,2,8,
{12}1,1,1,2,2,2,3,3,3,4,4,4,
5,5,5,6,6,6,7,7,7,8,8,8,
1,2,3,7/4,6,5,4/2,3,4,5/8,7,6,
5/4,3,2,1/6,7,8,1/3,2,1,8/5,6,7,
8/2,2,2,2/6,6,6,6/4,4,4,4/5,5,5,
5/3,3,3,3/7,7,7,7/1,1,1,1/8,8,8,
{32}2,3,{16}4,{32}8,7,{16}6,{32}1,2,{16}3,{32}7,6,{16}5,{32}2,3,{16}4,{32}8,7,{16}6,{32}1,2,{16}3,{32}7,6,{16}5,
{32}2,3,4,5,6,7,8,1,6/2,5,4,3,2,1,8,7,3/6,4,5,6,7,8,1,2,7/3,6,5,4,3,2,1,8,
{1}7b/3b,
{4},,,,1,
2,3,4,
8,7,6,5,
4/8,3,2/6,1,
8/4,7,6/2,5,
4/8,1,2/6,3,
8/4,5,2/6,7,
{1}1b/8b,
E
