&title=大和撫子 -Wild Dances-
&artist=DRIVE.; Adaptor
&first=0
&des=FRACIUMN
&lv_5=14
&inote_5=(158)
{4},,,,
{16}2h[8:1],,1,8,7,,6,5,6,5,6,5,6,,7,5,
{8}6h[8:2],,,3,3>6[4:1]/5h[8:2],,,5,5-8[8:1],,4-1[8:1],,7-3[8:1],,2,{16}1,1,
{8}5,34,2,34,7,56,4,56,{16}7h[4:1],,1,2,3h[8:1],,6,6,3,,2,4,3h[8:1],,6,5,
7,8,7,8,7,8,7,8,{24}7,6,5,1,2,3,{4}8b/4,
{16}2-5[8:1]/6-1[8:1],2h[8:1]/6h[8:1],,,{4},{16}7-4[8:1]/3-8[8:1],7h[8:1]/3h[8:1],,,{4},
{16}3-6[8:1]/7-2[8:1],3h[8:1]/7h[8:1],,,{4},{16}15,,,43,,,67,,
{16}2>5[8:1]/8<5[8:1],2h[8:1]/8h[8:1],,,{4},{16}7<4[8:1]/1>4[8:1],7h[8:1]/1h[8:1],,,{4},{16}2-6[8:1]/8-4[8:1],2h[8:1]/8h[8:1],,,{4},{16}7,7h[8:1],,2,4,3,6,5,
{16}7,7,,1h[16:3]/6,,,5,,4pp5[4:1]/3,,,2,,,1,,
{16}2,2,,3h[16:3]/5,,,6,,7,7,,8-4[8:1],,,1,,
{16}2,2,,5h[16:3]/3,,,4,,6v1[8:1]/2,6,,5,,,4,,
{16}2,2,4,3,6h[8:1],,5,,74,7,,51,,,2,3,
{16}4/5b,,6,5,7h[8:1],,4,5,4,,3,4,2h[8:1],,7,6,
{16}5/4b,,3,4,2h[8:1],,5,4,6-1[8:1],,{8}7,65,,
{16}3h[8:1],,5,4,6h[8:1],,3,4,2-6[8:1],,{8}1,28,,
{16}43,,5,,86,,7,6,2/5-8[8:1],,4,,3,,1,2,
{16}3-5[8:1],,6,,,,1,8,7-4[8:1],,3,,,,3,2,
{16}1-5[16:3],,,5V38[16:4],,,6,7,8,,,7,7,,,6,
{16}2/5<7[8:1],,25,,1/5,2,3,4,5/8<5[8:1],,8,,8-4[8:1]/4,3,2,1,8,,6,5,7h[8:1],,3,4,2h[8:0],,74,,65,,43,,
{8}2h[8:1]/8,4,2h[8:1]/8,6,3h[8:1]/8,{16}4-6[8:1],4,{8}3h[8:1],,
{8}2h[8:1],8,2h[8:1],6-8[8:1],4-6[8:1],6-2[8:1],{8},,
{8}7h[8:1],5,7h[8:1]/1,3,6h[8:1]/1,{16}5-3[8:1],5,{8}6h[8:1],,
{8}7h[8:1],1,7h[8:1]/2-5[8:1],6,4-8[8:1],,{8}3b,,
{8}2h[8:1]/7,{16}4,5,{8}2h[8:1]/6,{16}8,7,{8}2h[8:1]/6,{16}4-8[8:1],5,{8}36,,
{8}7h[8:1],1,7h[8:1],3-1[8:1],5-3[8:1],3-7[8:1],{8},,
{8}2h[8:1],8,2h[8:1]/7-4[8:1],6,5-8[8:1]*-3[8:1],,{8},,
{16}7h[8:1],,8,6,2,4,1,5,3,4,1,6,3>6[4:3],,,,
{16}5,,,5,,,4,,,4,,,3qq5[4:3],,,,
{16}6h[1:0],,,6h[8:0],,,7h[8:0],,,7h[8:0],,,8qq1[4:3],,,,
{16}5,,,5,,,4,,,4,,,3,,3,,
{16}2h[4:1],,8,8,4h[8:1],,7,7,5,6,4,7,3,4,3,4,
{16}2h[8:1],,7,1,8h[8:1],,5,7,1h[8:1],,8,2,6h[8:1],,1,2,
{16}7h[8:1]/3,,3,5,4h[8:1],,1,3,5h[8:1],,4,6,2h[8:1],,8,7,
{16}2/6h[4:1],,3,2,1h[8:1],,7,7,2,8,3,1,4,,6,5,
7,4,6,5,8,3,7,4,{32}6b,5,4,3,2,1,8,7,{4}6h[4:1]/2b,
{16}1b,7,2,8,8,3,5,4,{32}7b,6,5,,2,,2,,7b,8,1,,4,,4,,
{24}8b,7,6,54,3,2,7b,6,5,43,2,1,{4}8/4b-7[8:1]*-8[8:1],4b,
{16}2-5[8:1]/6,,3,4,2,,8,8,6v1[8:1],,5,4,3,,{24}2,3,4,
{16}7-4[8:1]/5,,8,6,7,,1,1,3<6[8:1],,2h[8:1],,,,{24}1,2,3,
{16}4-8[8:1],,6,5,4/3,,2,2h[16:3],,,1,1,4,7,2,6,
{8}8-4[8:1],7,8<5[8:1]/2,{24}3,2,1,{8}8qq1[4:1],,{16}1,2,3,4,
{4}5>2[8:1],{8}7h[32:1],6h[32:1],{4}8/5<8[8:1],{8}1h[32:1],2h[32:1],
{8}3h[32:1],4h[9:1]/7h[9:1],8h[9:1]/1h[9:1],5h[9:1]/6h[9:1],2h[9:1]/4h[9:1],
{8},{32}3,4,5,6,7,8,1,2,
{16}3-8[8:1],,,4,3,,5,,{16}6-2[8:1],,,5,6,,4,,
{16}1<6[8:1],,,3,1qq4[8:3],,2,,5<1[4:1],,,,,,,,
{1}3h[1:1],4h[1:1],5h[1:1],6h[1:1],
{16}{16}4,,,4,,,5,,,5,,,6pp4[4:3],,,,
{16}3h[1:0],,,3h[8:0],,,2h[8:0],,,2h[8:0],,,1pp8[4:3],,,,
{16}4,,,4,,,5,,,5,,,6,,,,
{16}7h[4:1],,3,2,1h[8:1],,6,6,2,4,3,5,4h[4:1],,,,
{16}6-8[8:1],,,4,,,5h[4:1],,,,6,,4h[4:1]/7,,,,6pp7[4:2],,5,,5,,,4,,,4,,3h[4:1],,,,
5-2[8:1],,,6,,,7h[4:1],,,,8,,1h[4:1]/6,,,,7qq8[4:2],,2,,2,,,3,,,3,,4,4,6,6,
{16}3-1[8:1],,,5,,,4h[4:1],,,,3,,5h[4:1]/2,,,,3qq2[4:2],,4,,4,,,5,,,5,,6h[4:1],,,,
4<7[8:1],,,3,,,2h[4:1],,,,1,,8h[4:1]/3,,,,1pp8[4:1],,7,,7,,,6,,,{24}51,62,73,{4}4/8qq4[4:2],
{4}3h[4:2]/8b,,,2s6[4:2],7h[4:2]/2b,,,5-1[8:1]/7-4[8:1],
5b/7b,8-4[8:1]/2-7[8:1],2b/8b,5h[4:1],
{8}4-8[8:1],3,4/2-5[8:1],1,2/7V53[8:1],8,17,{16}2,2,
{16}1q5[8:1],,2,8,1,,8,8,6v8[8:1],,5,4,3,,{24}2,3,4,
{16}7-4[8:1]/5,,8,6,7,,1,1,3<6[8:1],,2h[8:1],,,,{24}1,2,3,
{16}4-8[8:1]/7,,3,5,4,,6,,7-4[8:1]/1,,6,8,7,,1,,
{8}2>5[8:1],6-2[8:1],2V85[4:1],6V41[4:1]*V41[4:1],,,,{16}6,6,
{8}2h[8:1],{24}4,5,6,{8}7h[8:1],{16}1,1,8h[8:1],,5,6,3,4,2,8,
{16}1-5[8:1],,2,8,1-3[8:1],,7,,1/8pp2[8:1]*-5[8:1],,7,7,{4}8b,
{16}7-4[8:1],,6,8,7,,1,,3-8[8:1],,2,4,3,,6,,
{8}5-1[8:1],6,5/7-4[8:1],8,7/2V46[8:1],{16}3,1,{8}2,{16}8,8,
{8}7h[8:1],{24}6,5,4,37,6,5,{8}4<7[8:1],1>4[8:1],4qq5[8:2],,,
{8}1,8>3[8:1],7,6v1[8:1],5,4,{32}3,4,5,6,7,8,1,2,
{12}3/5-1[8:1],5,5,{4}5,{12}5-2[8:1]/8-4[8:1],58,58,{4}58,
{12}2-5[8:1],2,2,2/6-1[8:1],6,6,{32}6/1b,2b>7[4:3]*>7[4:3],3bpp8[4:3]*pp8[4:3],,
