&title=ラクトガール ~ 少女密室
&artist=上海アリス幻樂団
&first=0
&des=パチュリー・ノーレッジ
&clock_count=4
&lv_2=3
&lv_3=7+
&lv_4=11+
&lv_5=13+
&inote_2=(147){1},
,
&inote_3=(147){1},
,
&inote_4=(147){1},
,
&inote_5=(147){1},
,
{8}1h[8:3]/5b,,,4,2h[8:3]/6,,,5,
{8}3h[8:3]/7,,,6,4/8-5[8:1],,7p3[8:1],,
{1}1s5[2:1]*z5[2:1],
{8},1h[8:1],4h[8:1],1h[8:3],8,7,6,,
{8}5h[8:3]/1,,,8,6h[8:3]/2,,,1,
{8}7h[8:3]/3,,,4<6[12:1],,48,7q3[8:1]*q3[8:1],,
{384}5s1[2:1],5!z1[2:1],,,
,,,,
,,,,
,,,,{24},,{8},,,,,,,
{16}1,,,13,,,4,4,5,,,57,,,58,,
(151)
{8}17,1,1,16,28,2,2,27,
{8}13,3,3,38,4/2<7[8:1],4,4h[4:1],,
{8}6,6,8,2h[4:1],7,7,1,3h[4:1],
{8}8,8h[4:1],2s6[4:1],4h[8:3],2,,,,
{8}5>2[8:1],5,7,6,4>1[8:1],4,6,5,
{8}3>8[8:1],3,5,4,5,61,72,83,
{8}1,1,12,14,8,8,81,83,
{16}7,,7,,7V53[8:1],6V42[8:1],3V17[8:1],2V86[8:1],,,,,,,,,
(149)
{1}1b>8[8:7],
{1}5<4[8:7],
{1}1q8[2:1],
{4}5q4[2:1],,,2h[4:1],
(152)
{16}4,3,4,,2,2,2,,1,3,8,,2,,6h[8:1],,
{16}5,6,5,,7,7,7,,8,6,1,,7,,3h[8:1],,
{16}5,3,4,,2,2,2,,1,3,8,,2q8[4:1],,6,,
{16}5,,5,,5,,5,,4,4,5,,6,5,4,3,
{16}7-5[12:1],,8,,17,,8,,5,8,,2,4,,5h[8:1],,
{16}8v2[12:1],,4,,8,,5,,2,4,,5,8,,4h[8:1],,
{16}1-7[12:1],,5,,1,,4,,7,5,,4,1,,2pp1[4:1],,
{16},,52,,5,,,,1,7,,8,8,,1,,
{16}2-4[12:1],,1,,82,,1,,4,1,,7,5,,4h[8:1],,
{16}1v7[12:1],,5,,1,,4,,7,5,,4,1,,5h[8:1],,
{16}8-2[12:1],,4,,8,,5,,2,4,,5,8,,7qq8[4:1],,
{16},,47,,3,,2,,1,8,,6,7,,45,,
{16}6-8[12:1],,5,,46,,5,,7,5,,3,1,,8h[8:1],,
{16}5v3[12:1],,2,,5,,7,,3,1,,8,5,,2h[8:1],,
{16}4-6[12:1],,8,,4,,1,,6,8,,1,4,,3qq4[4:1],,
{16},,83,,8,,,,4,6,,5,5,,4,,
{16}3-1[12:1],,4,,53,,4,,2,4,,6,8,,1h[8:1],,
{16}4v6[12:1],,7,,4,,2,,6,8,,1,4,,7h[8:1],,
{16}5-3[12:1],,1,,5,,8,,3,1,,8,5,,6pp5[4:1],,
{16},,16,,2,,3,,5,3,6,3,7,3,8h[32:7],,
{32}3<2[2:3],4,5,6h[32:45],{8},,,,,,,
{4},,,6p2[8:1],
{1}8s4[2:1]*z4[2:1],
{8},1-4[8:1],4,1,8,7,6h[4:1],,
{1}2<3[2:3],
{8},,,8,,7,6q2[8:1]*q2[8:1],,
{384}4s8[2:1],4!z8[2:1],,,
,,,,
,,,,
,,,,{24},,{8},,,,,,,
{16}8,,,86,,,5,5,4,,,42,,,41,,
{8}78,8,8,15,18,1,1,26,
{8}12,2,2,37,2<7[8:1]/3,3,3h[4:1],,
{8}4,4h[4:1],8,2h[4:1],5,5h[4:1],1,3h[4:1],
{8}6,6h[4:1],2s6[4:1]*s6[4:1],4h[8:3],2,,,,
{8}5p8[8:1],5,7,6,4p7[8:1],4,6,5,
{8}3p6[8:1],3,5,4,5,61,7>2[8:1]/2V85[24:5],,
{8}2q5[2:1]*q5[2:1]/7,,,,,,,,
{16}1,,28,,7V53[8:1]*V53[8:1],6V42[8:1]*V42[8:1],3V17[8:1]*V17[8:1],2V86[8:1]*V86[8:1],,,,,,,,,
{16}3-7[8:1],,7,,3,,5h[8:1],,7,5,,1,7h[16:3],,3,4,
{16}5,6,7,8,1>4[8:1]/5,,5,,7v5[8:1],,7,,2>5[8:1],,2,,
{16}6,7,8,1,2,3,4,5,6,7,8,1,2,3,4,5,
{8}6h[4:1],8pp7[4:1],2h[4:1],8,4v6[8:1],4,4,,
{16}2-6[8:1],,6,,2,,7h[8:1],,5,7,,2,4,,8v2[8:1],,
{8}8,7p3[8:1],7,2q8[8:1],2,4,6h[4:1],,
{16}2,3,4,5,6,7,8,1,2,3,4,5,6,7,8,1,
{32}6,5,4,3,2,1,8,7,6pp5[4:1],5,4,3,2,1,8,7,{2}6,
{16}6-2[8:1],,2,,6,,4h[8:1],,2,4,,8,2h[16:3],,6,5,
{16}4,3,2,1,8<5[8:1]/4,,4,,2v4[8:1],,2,,7<4[8:1],,7,,
{16}3,2,1,8,7,6,5,4,3,2,1,8,7,6,5,4,
{8}3h[4:1],1qq2[4:1],7h[4:1],1,5v3[8:1],5,5,,
{16}7-3[8:1],,3,,7,,2h[8:1],,4,2,,7,5,,1v7[8:1],,
{8}1,2q6[8:1],2,7p1[8:1],7,5,3h[4:1],,
{16}7,6,5,4,3,2,1,8,7,6,5,4,3,2,1,8,
{32}3,4,5,6,7,8,1,2,3qq4[4:1],4,5,6,7,8,1,2,{2}3v6[8:1],
{1}8b,
