&title=Lone Wolf
&artist=Synthion
&first=0.01
&des=反射狐
&des_5=反射狐
&lv_5=13+
&inote_5=(180){4},{1},,{4},,,{8}2q3[4:3],
,,,,,,4<1[8:7],
,,,,,,,,3p2[4:3],
,,,,,,1<3[4:3],
,,,5>2[8:3],,,,,8qq1[8:7],
,,,,,,1V35[8:5],
,,,,,,,,{2}2,
{8}7/5,4/6,5/3,1/7,
,2,5,3,5,4,6,4,
7b/Cf,6,5,4/7-4[8:1],,7/3-8[8:1],,3/7<4[8:1],
,7/3>8[8:1],,3/E5,,7,{4}6-1[8:1],
{8}2,3,4,5/2-5[8:1],,2/6-1[8:1],,6/2,
,2,1,8/3-8[8:1],,3,{4}7,
{8}6/1,7,8,1/6-1[8:1],,6/2-5[8:1],,2/6<1[8:1],
,6/2>5[8:1],,2/E1,,6,{4}7-4[8:1],
{8}3,2,1,8/3-8[8:1],5-1[8:1],3-6b[8:1],5,3b,
,E8,E2,E1,,,,,4/6-1[8:1],
4,4,4,4/2,4,4/8,4,
4/6<1[8:1],4,4,4,4/2,4,4/8,4,
6/4>1[8:1],6,6,6,6/8,6,6/2,6,
6/4-1[8:1],6,6,6,6/8,6,6/2,6,
4/7>2[8:1],4,4,4,4/3,4,4/5,4,
7/4>1[8:1],7,7,7,7/8,7,7/6,7,
5/8,5,7/4,4,3/6,3,5/2,2,
4/1>4[8:1],5,6,7,8-6[8:1],5-1[8:1],8,5,
7,7,2,{16}2,1,{8}3-8[8:1],8-2[8:1],7,6,
5<8[8:1],4,3,2,1-3[8:1],8-4[8:1],1,8,
2,2,7,{16}7,8,{8}6-1[8:1],1-7[8:1],2,3,
4>1[8:1],5,6,7,8-6[8:1],1-5[8:1],8-4[8:1],1,
{4}8b,{8}3,5,1-7[8:1],7V13[4:1],{4}1,
C,{8}6,4,8-2[8:1],2V86[4:1],{4}8,
C,{8}1,7,2-4b[8:1],6-4b[8:1],2b,6b,
,,,,,,,,{1}3qq4[4:3],
6pp4[4:3],
2qq4[4:3],
7pp4[4:3],
1pp5[8:5],
7qq1[2:1],
3pp2[8:27]/6qq1[8:27],
,,,{8}6,
5,4,3h[2:1],,,,,,,,,,,,,6,
5,4,3h[2:1],,,,4h[2:1],
,,,5h[2:1],,,,6,
3,4,5,6h[2:1],,,,3h[2:1],
,,,4h[2:1],,,,5h[8:9],
,,,,,,,,,8,
1,7,2,6,3,5,
4qq8[8:5],6,6,6,6,6,6,6,
7qq4[8:5],1,1,1,1,1,1,1,
2qq4[8:5],5,5,5,5,5,5,5,
6pp1[8:5],5,5,5,5,5,5,5,
4/8,3,2,1,8/2,7,6,5,
4/6,3,2,1,8/2,7,6,5,
4/3,2,6/5,7,3/4,1,6/5,8,
{16}2,4,3,4,3,4,3,4,3,5,4,5,4,5,4,5,
4,6,5,6,5,6,5,6,5,6,4,7,3,8,{8}2b/A1h[8:5],
{4},,,{16},,{32}1b,2/8,3/7,4/6,
{8}5,{16}2,4,{8}3,{16}7,5,{8}6,{16}3,4,{8}2,{24}1bx/8bx,7/2,6/3,
{8}5/4,{16}3,4,{8}2,{16}6,5,{8}7-2b[8:1],3-6[8:1],7b,3b,
{16},,2,1,{8}3,{16}6,5,{8}7-4[8:1],4-8[8:1],3,2bh[8:3],
,,7,8-6[8:1],,8/1-5[8:1],2,1b/3b,
{16},,2,1,{8}3-5[8:1],3,{16},,7,8,{8}7,6h[4:1],
{16},,2,1,{8}3,8/4h[4:1],{16},,7,8,{8}6,5/1,
2-6[8:1],2,4-7[8:1],4,8-4[8:1],1-3b[8:1],8b,1b,
{16},,6,5,{8}7,{16}3,4,{8}2q6b[8:1],8p4[8:1],2,8,
{16},,2,3,5,6,7,8,5,4,3,2,8,7,6,5,
8,1,2,3,5,6,7,8,2,3,4,5,8,7,6,5,
{8}4/2,8,{12}7,5,6,{8}3,2/4,1/8,7/5,
{16},,6,5,{8}6,4b/7b-3b[8:1],,7b/1b-5<3[24:11],,1b/4b,
,,,,7-3[8:1],3-8[8:1],2,1bh[8:3],
,,6,7-4[8:1],,8-3[8:1],1,8b/2b,
,4,7/5,8/1,2/4,4/5,5/7,1bx-4[8:7]/8bx-5[8:7],
{1},{4},{32}8b,
7/1,2/6,3/5,{8}4,{4}2,{16}3,4,{8}2-5[8:1],
,2/8,{4}8-4[8:1],{16}4/8,3,2,1,8,7,{8}6-1[8:1],
,6/2,{4}2-4[8:1],{16}4/2,5,6,7,8,1,{8}2-8[8:1],
,2-5[8:1],4,2,7,{16}3,4,{8}2,{16}6,5,
{4}7-4[8:1],7-1[8:1]/2-6[8:1],2/7,{8}3,2>5[8:1],
,2,8-4[8:1],2,8,3-8[8:1],5,3-5[8:1],
,3,8-4[8:1],2,8,3-8[8:1],5,3-5[8:1],
,3,7,1,3,5,7,{24}8bx/1bx,7/2,6/3,
{8}5/4,{16}2,4,{8}3,{16}7,5,{8}6,{16}2-5[8:1],1,{8}3,2b,
{16},,7,5,{8}6,{16}2,4,{8}3,{16}7-4[8:1],8,{8}6,7b,
{16},,2,4,{8}3,{16}7,5,{8}6,{16}2-5[8:1],1,{8}3,2b,
,8/3,7,4b/6b-3b[8:1],,6b/1b-4[8:1],{16},,1b/5b,6,
7,8,1,2,3,4,5,6,{8}7-5[8:1],5-2[8:1],4,3bh[8:3],
,,1,8-4[8:1],,8/6,7,{16}5,8,
5,8,4,8,4,8,3,7,3,7,2-6[8:1],6,1,5,{8}2b,
,,,,,,,,7b/Cf,
{16}6,5,{8}6,4/7-4[8:1],,7/3-8[8:1],,3/7<4[8:1],
,7/3>8[8:1],,3/E5,{16},,7,8,{4}6-1[8:1],
{8}2,{16}3,4,{8}3,5/2-5[8:1],,2/6-1[8:1],,6/2,
{16},,2,1,{8}3,8/4-8[8:1],{16},,4/7bx,6bx,{4}5bx,
{8}6/1,{16}7,8,{8}7,1/6-1[8:1],,6/2-5[8:1],,2/6<1[8:1],
,6/2>5[8:1],,2/E1,{16},,6,5,{4}7-4[8:1],
{8}3,{16}2,1,{8}2,8/3-8[8:1],6-2[8:1],3-6b[8:1],6,3b,
,8/7,6/1,5/2,3/4,{32}2,1,8,7,6,5,4,3,{8}2h[8:3],
{32},,,,,,,,,1x/3x,8x/4x,7x/5x,{8}6x,{4}6x-3[8:1],6/1-5[8:1],
1/7-4[8:1],7/3-7[8:1],3-5[8:1]/6-1[8:1],6/3,
3-8[8:1],3/7-3[8:1],7-1[8:1]/2-5[8:1],2/7,
7-4[8:1],7/3-7[8:1],3-5[8:1]/6-1[8:1],6/3,
{8}3/7,1,3/5,7,6/4,2,5/3,{16}8,7,
{8}6/2,8,6/4,2,3/5,7,4/6,{16}1,2,
{8}3/5,2/8,6/5,7/1,{16}2,8,3,7,4,6,1,7,
2,6,3,5,2,8,3,6,1,7,4,5,2,7,,,,,,,,,,,{2}6/3<6[2:11],
{1},,,,,{4},,{8},E4,
E6,E5,
E
