&title=夜長
&artist=かしこ。
&first=0
&des=fullower
&lv_5=13
&inote_4=
&inote_5=(117)
{4},{8},{16},
{4}6/5,6/5,7/4,7/4,6/5,6/5,6/5,6/5,
{4}3/4,3/4,2/5,2/5,3/4,3/4,3/4,
{8}3/4,2,7/1>6[4:1]*q6[4:1],,,,,8/7,,
{4}1-5[8:1],7-4[8:1],3-5[8:1],6,
{4}4q8[8:1]/8<4[8:1],,1v3[8:1]/5v3[8:1],,
{8}2/4,3,5/7,6,1q5[8:1]/5q1[8:1],1/5,,
{8},3/7,3q8[4:1]*<7[4:1]/7,,,,,1/2,,
{4}8-4[8:1],2-5[8:1],6-4[8:1],3,
{4}5-1[8:1]/1^4[8:1],,8^5[8:1]/4-8[8:1],,
{8}6/2,5,3/7,4,1w5[8:1]/8,1/8,,,
{16}3/7,,4,,2/8,,7,5,6-8[8:1]*-4[8:1],,,,6,,,,
{16}1/3,,2,,1/3,,8,5-7[8:1]*-3[8:1],,1,,5,,,,,
{4}2-4[8:1]/8-4[8:1],,5^2[8:1]/6-2[8:1],,
{8}1/8,7,1/8,2,1^4[8:1]/8^5[8:1],1/8,,,
{16}2/7,,3,5,4,6h[8:1],,8,,5,6h[8:1],,5,,4/7,,
{16}6,5,7,4,6,5,7,4h[8:1],,5,3h[8:1],,4,,2/5,,
{4}1-4[8:1]/6-3[8:1],,5-8[8:1]/2-7[8:1],,
{8}1/6,2,3/8,7,4-6[8:1]/5-3[8:1],4/5,,,
{16}1/7-3[8:1],,,,4h[8:5],,,,A2,A1,A8,A7,A6,A5,,,
{16}8/2-6[8:1],,,,5h[8:5],,,,A7,A8,A1,A2,A3,A4,,,
{4}6h[8:1]/7h[8:1],6h[8:1]/7h[8:1],3h[8:1]/2h[8:1],3h[8:1]/2h[8:1],
{8}4b/5b,3b/6b,2bqq5[8:3]/7bpp4[8:3],,,,,,
{16}3b^6[8:1]/6b^3[8:1],,2/7,2/7,,,,,
{16}1/8,,2,,1/3qq6[8:3],,4,,3/5,,,7,,,1,,1-4[8:1]*-6[8:1],,,,1,,,,
{16}3-7[8:1],,8,8,3,,6,,
{16}1-5[8:1],,4,4,1,,6,,
{8}8-2[8:1],5,8-6[8:1],4,8w4[8:1],,8,,
{16}6b<2[4:1]/2b,,,3,,3,,,4>6[16:5],,,,5,,,,
{16}5p3[4:1],,,3,,,1,,1w5[8:1],,,,1,,,,
{16}3-7[8:1],,8,8,3,,6,,
{16}3-7[8:1],,8,8,3,,6,,
{16}1-6[8:1],,4,,1,,5,5-3[8:1]*-2[8:1],,,,
{1}5<3[16:31]*pp3[16:31],,
{8},,{16},,,
{4}5/6,5/6,4/7,{8}4/7,
{16}C,,,E6,,,E4,,E5,,,,
{4}4h/5h,
{8}6,2qq7[8:3]/7,,,6,,6,,
{4}1^4[8:1],7^4[8:1],8-4[8:1],5,
{4}6-3[8:1]/3-6[8:1],,2v1[8:1]/7v8[8:1],,
{8}2/7,4,7/2,5,2v4[8:1]/7^2[8:1],2/7,,
{8},3,7/1>6[4:1]*q6[4:1],,,,,8/7,,
{4}1-5[8:1],7-4[8:1],3-5[8:1],6,
{4}4-6[8:1]*-7[8:1]/8,,5-3[8:1]*-2[8:1]/1,,
{8}4/8,7,1/5,2,6-1[8:1]/4-8[8:1],6/4,,,
{16}6/2,,5,,7/1,,2,4,3-1[8:1]*-5[8:1],,,,3,,,,
{16}8/6,,7,,8/6,,1,4-2[8:1]*-6[8:1],1,,8,4,,,,,
{4}7-5[8:1]/1-5[8:1],,4^7[8:1]/3-7[8:1],,
{8}8/1,2,8/1,7,1/8,8/1,
{16}2,7,3,6,
{16}4b^1[8:1],,5,5,,7,7,,
{16}6b^1[8:1],,2,2,,4,4,,
{8}5b,6b,7b,8b,1h[8:3]/A5f,A6f,A7f,A8f,,,,,
{8}4qq4[4:1]*pp4[4:1],,,,,
{32}3x,5x,3x,,6x,,4x,,5x,,,,
{2}1w5[8:1],{16}6b^3[8:1]/3b^6[8:1],,7/2,7/2,,,,,
{16}8^3[8:1]/1,,7,,8/6pp3[8:3],,5,,6/4,,,2,,,8,,8w4[8:1],,,,8,,,,
{16}6V48[4:1],,3,3,6,,2,,
{16}1-3^6[4:1],,7,7,1,,7,,
{8}8-2[8:1],5,8-6[8:1],4,8w4[8:1],,8,,
{16}6b<2[4:1]/2b,,3/5,3/5,,4,,,4>6[16:5],,,,5,,,,
{16}5p3[4:1],,,3,,,1,,1w5[8:1],,,,1,,,,
{16}3V51[4:1],,6,6,3,,7,,
{16}8-6^3[4:1],,2,2,8,,2,,
{16}1-6[8:1],,4,,1,,5,5-3[8:1]*-2[8:1],,,,
{8}5<3[8:3],,{16},E1f,,,,,,,,
{16}1,4,3,4,1,5,4,5,2,2,4,3,6,6,4,5,3,3,4,4,5,5,6,6,
{16}1,1,8,2,8,8,1,7,
{16}1,4,3,4,1,5,4,5,2,2,4,3,7,7,5,6,3,3,4,4,5,5,6,6,
{1}2b-7<2[8:5],6bp2p6[8:5],1b>5p1[8:5],7b>6[8:5]*-1-3-5b[16:9],
{4}4qq5[8:3],6,8qq1[8:3],2,4q5[8:3],6,8,2,
{16}3,,3,,7,5,,3,4,3,,5,4,5,,,
{8}2b/7b,{16}A6,E6,E5,E4,A3,,
{4}1xw5[8:1],,
{16}3b^6[8:1]/6b^3[8:1],,2/7,2/7,,,,,
{16}1^6[8:1]/8,,2,,1/3qq6[8:3],,4,,3/5,,,7,,,1,,1w5[8:1],,,,1,,,,
{16}3V51[4:1],,6,6,3,,7,,
{16}8-6^3[4:1],,2,2,8,,2,,
{8}1-7[8:1],4,1-3[8:1],5,1w5[8:1],,1,,
{16}3b>7[4:1]/7b,,,6,,6,,,5-7-1-3[16:5],,,,4,,,,
{16}4q6[4:1],,,6,,,8,,8w4[8:1],,,,8,,,,
{16}6V48[4:1],,3,3,6,,2,,
{16}1-3^6[4:1],,7,7,1,,7,,
{16}8-3[8:1],,5,,8,,4,4-6[8:1]*-7[8:1],,,,
{8}4>6[8:3],,{16},E1f,,,,,,,,
{16}8,5,6,5,8,4,5,4,7,7,5,6,3,3,5,4-6[8:1]*-7[8:1],,,,4>6[8:3],,,,,
{16}E1f,,,,,,,,
{16}8,5,6,5,8,4,5,4,7,7,5,6,2,2,4,3,6,6,5,5,4,4,3,3,
{4}1b^4b[8:1]*^6b[8:1],1b,
{16}
2,4,3,5,4-8[8:1],6,5,,4/6-2[8:1],,7,,4pp8[16:5]/6,,3,,4,,,,,,,,
{4}1b>8b[8:3]*<2b[8:3],1b,,
{4}8b<1b[8:3]*>7b[8:3],8b,,
{16}1,8,2,7,3,6,4,5<4[16:27],
{1},,{8},
{4}6/5,6/5,7/4,7/4,6/5,6/5,6/5,6/5,
