&title=Lament Rain
&artist=Ashrount vs. 打打だいず
&first=0.05
&des_5=Team Wither vs. LyNn
&lv_5=14
&des=Team Wither vs. LyNn
&inote_5=(200){4},,
||s4/2
{4},,
||s4/4
{4}5/4>5[4:15],,,,,,,,E1,,,,,,,,
{4}4>5[4:14]b,,,,,,,,C,,,,4^1[8:3],,,,
{8}1x/5xs1>7[16:25],,,3s7>7[8:9]b,,,,,,,,,,,,,
{8}1x/8x^3-5^7-1-5[16:24],,,3^5-7^1-5[8:9]b,,,,,,,,,,,,,
{4}3x/4x,34,56,56,2x/4x,24,57,57,
{8}1,1,1,1,
{16}1,5,1,5,
{32}1s5[4:3]b,8,7,6,5,4,3,2,
{4}1/5s1[4:2],,,,
{8},,7hb[4:1]/5hb[4:1],,,2hb[4:1]/4hb[4:1],,,
{8}7hb[4:1]/1hb[4:1],,,6hb[4:1]/4hb[4:1],,,
{8}4b/6b,46,3b/5b,35,2b/4b,24,
{16}1,3,1,3,
{32}1s5[4:3],8,7,6,5,4,3,2,
{4}1z5[4:2]b,,,,
{8}4hx[8:3]/2V83[4:1],,,
{24},5,6,
{8}7-4[8:1],,,3-8[8:1],,7xV13[8:3],,,4,5z1[8:3],6-2[8:2],,
{8},,,
{24}8x,7x,6x,
{8}5x-1[8:1],4,3,2v5[8:1],,6,,
{16}6,7,8z4[8:1],,,,,,,,
{8}3x/5hx[8:3],,,
{24}1,2,3,
{8}4^1[8:1],5,6,
{8}7s3[8:4],,7/8-4[8:2],,,,,,,
{4}3>5[8:3],,4-2-8-6[8:3],,5<3[8:3],,4h[4:1],
{24},,,5,6,7,
{8}8xV61[4:1],,,
{24}2,3,4,
{8}5-2[8:1],,,8-4[8:1],,3xV57[8:3],,,
{8}2,1s5[8:3],8v3[8:2],,,,,
{24}2x,3x,4x,
{8}5x^2[8:1],6,7,
{8}8v3[8:1],,1h[4:1],,
{16}4,5,6-3[8:1],,,,,,
{8}2,4x/2hbx[8:2],,5,3/5hb[8:2],,4,6x/4hbx[8:2],,7,5/7hb[8:2],,
{8}6,8/6hb[4:1],,7b-1s5[8:6],,2b-8z4[8:4]b,,,,,,,,
{4}1w5[4:1],,,28,
{16}3,4,3,4,3h[8:1],,6,5,6,5,6h[8:1],,
{16}2,4,2,4,2h[8:1],,7,5,7,5,7h[8:1],,
{16}4,7,3,8,2,1,2h[8:1],,
{16}8,1,8,1,7h[8:1],,2,1,2,1,3h[8:1],,
{16}7,8,7,8,6h[8:1],,2,1,2,1,3h[8:1],,
{16}5,3,6,2,7,1,8h[8:1],,
{16}2,3,4,5,6,7,8,1,2^5[4:1],,,,
{16}5,6,7,8,1^6[4:1],,,,
{16}4,3,2,1,8^3[4:1],,,,
{16}4,5,6,7,
{8}8-4[8:1],,28,1-5[8:1],,1/7-4[8:1],,78,,
{8}2,3,4,5,6,7,,
{4}8h[4:1],4h[4:1],
{6}7h[6:1],3h[6:1],6h[6:1],
{8}2h[8:1],5h[8:1],1h[8:1],
{12}4h[12:1],8h[12:1],3h[12:1],
{16}7x,8x,1x,2x,
{24}3x/7x,4x/8x,1x/5x,
{4}2x-7[8:1]/6x-3[8:1],2b/6b,
{16}1x,2x,3x,4x,8x,7x,6x,5x,
{12}2,2,2,7,7,7,
{4}1w5[8:1],1,
{4}3x/7x,
{16}3,4,3,2,3,4,3,2,3,,3hx[4:1],,,,,,
{16}6,5,6,7,6,5,6,7,6,,6hx[4:1],,,,,,
{16}3,4,3,2,3,4,3,2,3,,3hx[4:1],,,,,,
{16}6,5,6,7,6,5,6,7,6,,6x,,
{8}4x/6x,4x,53,5,46,6,24,2,46,6,53,3,24,4,13,1,
{16}1,3,1,3,2,4,2,4,3,5,3,5,4,6,4,6,
{16}5h,5h,5h,5h,5h,5h,5h,5h,
{4}5-1[8:1]b,,
{16}8bx-4[16:1],,,2b-5[16:1],,,6b-1[16:1],,,,,,
{16}2b-5[16:1],,,7b-4[16:1],,,1b-4[16:1],,,8bz4[4:1]b,,,,,,,,,,,
{16}1b-5[16:1],,,7b-4[16:1],,,3b-8[16:1],,,,,,
{16}7b-4[16:1],,,2b-5[16:1],,,8b-5[16:1],,,1bs5[4:1]b,,,,,,,,,,,
{16}6b-1[16:1],,,3b-8[16:1],,,7bx-4[16:1],,,,,,
{16}3b-8[16:1],,,6b-1[16:1],,,4b-2[16:1],,,5bs1[4:1]b,,,,,,,,,,,
{12}2x,2hbx[12:1]/1hbx[12:1],,3hb[12:1]/8hb[12:1],,4hb[12:1]/7hb[12:1],,
{12}5b,5b,5hb[8:3],,,
{6},4bs8[6:2],5b-1[6:1]b,
{4},,
{16}1x/2x-5[8:1],,,,7/2,,,8xV64[16:3],,,
{8}4,2,8V24[4:1],,4,6-2[8:1]b,8-4[8:1],,,,,
{16}4x/3x-8[8:1],,,,6/3,,,5xV71[16:3],,,
{8}1,3,5V31[4:1],,1,7-3[8:1]b,5-1[8:1],,,,,
{8}31,3,28,2,17,1,86,8,
{8}85,8,84,8,83,8,82,8,
{8}8x/2x,1x/3x,2x/4x,3x/5x,
{32}4x,5x,6x,7x,8x,1x,2x,3x,
{32}D4,D5,D6,D7,D8,D1,D2,D3,
{24}E4,E5,E6,E7,E8,E1,
{16}B1,B2,B3,B4,B5,B6,B7,B8,
{8}B1,B3,
{4}E5f/8xq4q2q6q4q8[4:30],,,,
{32}A1,D2,,,,,,,
{4},,,,,,,
{32}A3,D4,,,,,,,
{4},,,,,,,
{32}A5,D6,,,,,,,
{4},,,,,,,
{32}C,,,,,,,,
{4},,,
{4}1^4[4:2],,4qq2^5[4:4],,
{32}A5,D6,A6,,,,,,
{4},7,,
{4}8^5[4:2],,5pp7^4[4:4],,
{32}A4,D4,A3,,,,,,
{4},2,,
{4}1p5[4:2],,5^2pp4[4:4],,
{32}A6,D7,A7,,,,,,
{4},8,,
{4}8q4[4:2],,4q8[4:2],,
{4}2,,
{8}1bx-4[4:1]b/8bx,1b/8b-5[8:1],,,
{8},,3x/5x,3,3,3,3,
{16}3,4,
{8}5,5,5,
{16}5,6,
{8}7,7,7,
{16}7,8,
{8}1,1,1,1,7,7,7,
{24}1,2,3,
{8}8,8,8,
{24}3x,2x,1x-4[24:4]b,
{4}8x-5[8:1],,
{8}36,36,36,36,27,27,27,27,
{8}1h[16:1]/8h[16:1],1h[16:1]/8h[16:1],1h[16:1]/8h[16:1],1h[16:1]/8h[16:1],
{32}1,2,3,4,1,2,3,4,8,7,6,5,8,7,6,5pp8[32:25],
{4}1pp4[4:3]b,,,,
{8},,,37,,34,25,16,
{8}8b/7b-4[8:1],,7-1[8:1]/2-6[8:1],1,
{8}2/7V53[4:1],,75,2-5[8:1],,2/1V75[4:1],
{8},4,3,3,2,2,
{8}1b^6[8:1],,1-5[8:1],5V31[4:1],1,6,7,8>8[8:2],,
{32}A8,A1,A2,A3,A4,A5,A6,A7,
{8},,
{8}1,28,37,
{16}4b/6b,,37,,2,5,3,4,1b,,38,,7,4,6,5,
{4}8b-5[8:1],8/2-6[8:1]b,2/7,
{8}17,
{16}3x,3x,4bx/2bx,,,1b/5b,,,
{16}6,6,7b/5b,,,8b/4b,,,
{16}13,,2,1,
{8}2,38,47,,35,
{32}62,3,4,5,6,7,8,1,
{8}2b-5[8:1],,2-8[8:1]/7-3[8:1],8,
{8}7/2V46[4:1],,24,7-4[8:1],,7/8V24[4:1],
{8},5,6,6,7,7,
{8}8b^3[8:1],,8-4[8:1],4V68[4:1],8,3,2,1w5[8:1]b,,
{32}1b,B1,Cf,B5,
{8},,,57,46,35,
{8}4/2h[4:3],,5h[16:1],5h[16:1],6h[16:1],6h[16:1],
{32}7,8,1,2,3,4,5,6,
{8}7h[4:3],,4h[16:1],4h[16:1],3h[16:1],3h[16:1],
{32}2,1,8,7,6,5,4,3,
{4}2h[4:1],
{12}4,3,5,1,8,2,
{8}7,5,6,4,
{16}4,5,4,5,
{32}4,3,2,1,8,7,6,5,4,3,2,1,8v7^4[8:11],7,6,5,
{4}4v3^8[4:5]b,,,,,,,
{8}1,1h[8:5],,,,,2h[4:2],,,,3h[4:2],,,,4-8[8:1],,,,
{8}1x/2x,
{24}1hx[8:1]/2x,3,4,
{8}5,5x/6x,
{24}5h[8:1]/6,7,8,
{8}1x,12,
{24}1x/2hx[8:1],8,7,
{8}6x,
{16}3,4,2x,5,1,6,
{8}8x,8x,
{8}7x/8x,
{24}7hx[8:1]/8x,1,2,
{8}3,3x/4x,
{24}3h[8:1]/4,5,6,
{8}7x,78,
{24}7x/8hx[8:1],6,5,
{8}4x,
{8}1/3,2x/4x,3/5,4x/6x,5/7,
{8}8x/6x,
{24}8hx[8:1]/6x,5,4,
{8}3,3x/1x,
{24}3h[8:1]/1,8,7,
{8}6x,64,
{24}4x/6hx[8:1],3,2,
{8}1x,
{16}8,6,1,7,2,8,
{32}2,3,4,5,6,7,8,1,
{8}2h[8:1],
{24}8,7,6,
{8}5,
{8}3h[8:1],
{24}8,7,6,
{8}5,
{8}4h[8:1],8h[8:1],
{24}4b,37,26,5h[8:1]/1,,,
{24}1b,26,37,4h[8:1]/8,,,
{24}8b,73,62,51,,,
{16}1,4,2,4,3h[8:1],,4,3,5,3,6h[8:1],,
{16}2,6,3,6,4,6,5,6,7,6,8,6,1,6,2,6,
{32}3,4,5,6,7,8z4[32:51],1,2,
{4}3V58[4:6]b,,,,,,,,
{4}Ch[4:20],,,,,,,,
{4}7,,,,6,,,,5,,,,4z8[4:2]*z8[4:2],
