&title=I Wanna
&artist=長谷川育美
&first=0.9
&des=4kariza
&lv_5=14?
&des_5=4kariza
&inote_5=
(200){8}3h[8:1],5,3h[8:1],5,3h[8:1],5,3h[8:1],5,
4h[2:1],6,7,8,1h[2:1],B3/B4,{4}B3/B4,
{8}5h[8:1],7,5h[8:1],7,4h[8:1],6,4h[8:1],6,
3h[4:3],B6,B5,B4,{4}B3,C,
{8}6h[8:1],4,6h[8:1],4,6h[8:1],4,6h[8:1],4,
5h[2:1],3,2,1,8h[4:1],B7/B8,{4}B7/B8,
{8}5h[8:1],4,3h[8:1],4,6h[8:1],5,4h[8:1],7-5v4-2[8:5]*-5v4-2b[8:5],
,,,,{4}1-5[8:1],Cf,
8-6-4[4:1],{8}1,2,{16}3h[16:3],,,4h[16:3],,,{8}5h[4:1],
,6v1[8:1],,6,2-5[8:1],8,{4}2,
8<4[4:1],{8}1,2,{16}3h[16:3],,,4h[16:3],,,{8}5h[4:1],
,8-4[8:1],,8,{16}1,2,3,4,8,7,6,5,
2-6[8:1],1,2,1,{8}2b,5,{16}5h[16:3],,,6h[16:3],,,{8}7h[4:1],
,1-5[8:1],,1,7-4[8:1],4,7,{16}1,2,
{8}3,3,4,4,5,5,6,{16}6,4,
5,3,6,4,5,3,6,4,{24}5,6,7,8,1,2,{8}3,4,
{4}5/4,{8}5/6,4,6/5,7,{4}5/6-8[8:1],
6/5-1[8:1],5/6,{8}8/2,3/7,4/6,5,
{4}3/4,{8}4/3,5,4/3,2,{4}4/3-1[8:1],
3/4-8[8:1],4/3,B1/B2,{8}6h[8:1],5,
6h[8:1],7,{4}6-1[8:1]*V82[8:1],6,{8}3h[8:1],4,
3h[8:1],2,{4}3-6[8:1]*V57[8:1],3,{8}8,8h[8:5],
{4}E7,C,E3,{8}2,2h[8:5],
{4}5,6,{24}7,8,1,2,3,4,5,6,7,8,,,{4}3b,
4/2,{8}5,5,{4}4/6,
2<4[2:1],8h[2:1],{16},,,,,,6,5,
{4}6,5/7,{8}4,4,{4}3/5,
6-8-4[8:3],1-3[8:1],{8},,,3,
{4}4,2/B5,{8}6,6,{4}7/B5,
3,B4/B2,{8}5,5,B6/B4,2-5[8:1],
2,7-3[8:1],7,1-5[8:1],1,6-8[8:1],6,3,
4,5,6,{16}7,8,7,8,6,1,6,1,5,2,
{8}5h[8:1],3,5h[8:1],2,{16}2/5h[8:1],1,8,7,{4}6/5h[8:1],
{16}7/5h[8:1],8,1,2,{4}3/5h[8:1],{16}3/5h[8:1],4,,6,7,8,1,2,
{8}3h[8:1],4,3h[8:1],5,{16}5/3h[8:1],6,7,8,{4}1/3h[8:1],
{16}2/3h[8:1],1,8,7,{4}6/3h[8:1],{16}5/3h[8:1],6,7,8,1,2,3,4,
{8}5h[8:1],4,5h[8:1],3,{16}5h[8:1]/E2,E1,E8,E7,{4}5h[8:1]/E6,
{16}5h[8:1]/E8,E1,E2,E3,{4}5h[8:1]/E4,{16}1/5h[8:1],8,7,6,5,4,3,2,
{8}1/8,7/8,6/7,6/5,5/4,4/3,3/2,1/2,
{16}8b/1b,,,6b/4b,,,{8}3b/1b,{2}Cfh[4:1],
{4}8-4[8:1],1/8,{16}2,1,,3,{8}4-8[8:1],5,
4-2[8:1],3,{16}4,,,7,{8}8,{16}6,4,5-1[8:1],3,6,4,
{4}5-3[8:1],5,{16}8,7,6,5,4,3,2,1,
{4}8b-4[8:1]/2b-5[8:1],8b-6b[8:1]/2b-6b[8:1],8b/2b<4[8:3],{8}2b,{16}E8,E7,
{4}E6,7-3[8:1],7/6-2[8:1],6/5-1[8:1],
5/4-8[8:1],4/3-7[8:1],3/2,{16}2,1,2,1,
{32}3b,E4f,B4,B5,{8}E6,{16}6,5,6,5,{32}7b,E8f,B8,B1,{8}E2,{16}3,4,5,6,
2,3,4,5,1,2,3,4,6/5,7,8,1,2,1,2,1,
{4}2-6[8:1],1/2,{16}7,8,,6,{8}5-1[8:1],4,
5-7[8:1],6,{4}5,{16}2,1,,3,{8}4-8[8:1],5,
{4}4-6[8:1]*-2-8[8:1],4,{8}7,7h[4:1],5,5h[4:1],
{16}2,1,8,7,6,5,4/3,2,1,8,7,6,5/1,4/8,3/7,2/6,
{4}5v7[8:1]/1v3[8:1],5/1,{16}6,7,8,1,2,3,4,5,
{4}2-6[8:1]/6-2[8:1],6<1[8:1]/2>5[8:1],{8},,,C,
{16}2,1,2,1,{8}3,{16}7,8,7,8,{8}6,{16}2x,3,4,5,
7x,8,1,2,4x,5,6,7,1x,2,3,4,6x,7,8,1,
{4}2w6[8:1],2,{16}E1,E8,E7,E6,E5,E4,E3,E2,
{2}Cfh[1:1],{8}B3/B2,B7/B6,{4}B5/B4/E5,
1b-3-5[4:1],{8}8,7,{16}6h[16:3],,,5h[16:3],,,{8}4-8[8:1],
,4/3,{16},,1,2,3,8,7,6,2,3,4,6,
{4}5-7-1[4:1],{8}2,3,{16}4h[16:3],,,5h[16:3],,,{8}6-2[8:1],
,7/6,,8,{16}8,7,6,5,1,2,3,4,
7-3[8:1],8,7,8,{8}7b,4,{16}4h[16:3],,,3h[16:3],,,{8}2-6[8:1],
,1/2,{16},,8,7,6,1,2,3,7,6,5,2,
{8}3,6,6,5,5,4,4,3,
{2}3h[2:1],{16}5,4,6,3,5-1[8:1],4,6,3,
{4}5b,{8}3,5,2,4,{4}1-3-5[4:1],
5-2[8:1],{8}7,7-4[8:1],,7,1,2,
{4}3/4-1[8:1],{8}4,7,8>4[4:1],6,{4}8,
{8},5w1[16:3],,5,,,3-1-6[4:1],5,
6-4-8[4:1],7,{4}8w4[8:1],A8,{8}6<2[4:1],2,
2>6[4:1],6,{4}6w2[8:1],A6,{8}8-6[8:1],8-2[8:1],
,,,,,,3-1[8:1],3-5[8:1],
{16},,,,,,,,7,8,1,2,3,4,5,6,
{4}7b-3[8:1],7/1-5[8:1],1/6-1[8:1],{8}6/2v5[8:1],2,
{4}2/8,{8}7-4[8:1],5,{4}7,{8}1-5[8:1],4,
{4}1,{8}6,6,4,5,3,2,
{4}1-5[8:1],1,{16}6,7,8,1,2,3,4,5,
{4}6/8-4[8:1],8/7-3[8:1],7/8,{8}2,4,
3,6,4-7[8:1],5,{4}4,{8}8,8h[1:1],
,E7,E6,E5,E4,E3,E2,E1,
{16},,4,5,3,6,4,5,2,7,4,5,3,6,2,7,
{4}1qq3[2:1],{16}8,7,6,5,{4}4,{8}5<1[4:1],5,
{16}1,2,3,4,{8}5V31[4:1],5,{16}1,8,7,6,{4}5h[8:1],
1h[4:1],{8}8<4[4:1],8,{16}4,3,2,1,{8}8-2-4[4:1],8,
{16}4,5,6,7,{4}8h[8:1],{16}8,1,{8}8,{4}7b/2b,
{8}4,4h[8:3],{16}5,6,7,8,{4}1h[8:3],{8}3,3h[8:3],
{16}4,5,6,7,{8}8,8h[8:3],{16}1,2,3,4,{8}5,7/8,
,6/5,6/5,4/3,4/3,{16}2,1,3,1,4,1,
5b-1b[0.225##0.075],,,7b-4b[0.225##0.075],,,{8}7b,{16}8,5,8,5,8,6,8,6,
{8}8,7b/8b,{16},3b/1b,,,4b,6,5,6,{4}5-1[8:1],
Cf/5<8[8:1],5,{16}2,1,,3,{8}4,2/5-1[8:1],
,5/6,{4}7,{16}2/8,,,3/7,,,{8}4/6,
{4}6/4-8[8:1],3/4,{16}1,8,7,6,5,4,3,2,
{4}8b-6[8:1]/1b-5[8:1],1b-3[8:1]/8b-4[8:1],8b/1bw5b[8:1],{32}1b,B1,Cf,B5,{8}A5,
{4}2-8-6[4:1],B3/B4,1-7-5[4:1],B1/B2,
8-6-4[4:1],B3/B4,7h[8:3],{8}8,1,
{16}2,4,2,4,{32}1b,B1f,C,B5,{8}A5,{16}7,5,7,5,{32}8b,B8f,C,B4,{8}A4,
{16}2,3,4,5,3,4,5,6,7/8,1,2,3,4-8[8:1],5,4,5,
{4}4b>1[8:1],4,{16}7,8,,6,{8}5,7/4-8[8:1],
,3/4,{4}2,{16}1/7,,,6/2,,,{8}5/3,
{4}3/5-1[8:1],5/6,{16}8,1,2,3,4,5,6,7,
{24}8bx,7/1,6/2,5/3,,,4bx,5/3,2/6,7/1,{48},,,,{16}8bx,1,8,2,8b-4[8:1],3,8,4,
{4}8bw4[8:1],A8,{16}2,1,8,7,6,5,4,3,
2,8,7,6,5,4,3,2,{4}1-7[8:1]*-3[8:1],1,
{16}6,4,5,4,6,3,5,3,5,4,7,4,7,5,1,5,
1x,2,3,4,6x,7,8,1,3x,4,5,6,8x,1,2,3,
{4}4h[2:1],{16}2,1,8,7,6,5,4,3,2,1,8,7,
{1}6bw2[2:1],
{4}4h[8:3],{8}7,6,{4}4/5,3/4,
{8}4,5,3,6,{4}5-8[8:1],5,
{8}1,6,2,5,{4}3-8[8:1],3,
6h[4:1],5h[4:1],{16}7,8,1,2,3,4,5,6,
{4}7h[8:3],{8}3,4,{4}6/5,4/5,
{8}2,4,3,6,{4}6/5,5,
4/3<6[8:3],{8}E8,E7,{4}E6,{8}5,5/6>3[8:3],
{16},,,,,,,,2,1,8,7,6,5,4,3,
{8}2,8,1,7,2,6,3,5,
4,5-8[8:1],,5-2[8:1],,5,,7,
8,6,1,5,2,4,3,5,
4,4-7[8:1],,4>1[8:1],,4,,7,
7-1-3[8:3],,,3-5-8[8:3],,,{4}8-3-6[2:1],
{8},6,{4}6<6[4:3],,4,
{8}4h[8:3],,,E7/B6/A6/E6,,A8/E8/D8,{4}Ch[4:3],
{16},,,,,,,,7,8,1,2,3,4,5,6,
{8}7-3[8:1],8,2-5[8:1],1,6-1[8:1],7,4-8[8:1],3,
7,7<4[8:1],,7>2[8:1],,7,{16}5,4,3,2,
{8}1-5[8:1],8,6-1[8:1],7,2-5[8:1],3,7-3[8:1],8,
4,4>1[8:1],,4,{16}8,7,6,5,4,3,2,1,
{8}8/3-7[8:1],3,6-1[8:1],6,2>5[8:1],2,7-4[8:1],7,
1-5[8:1],1,{4}1>4[8:1],1-6[8:1],1,
{16}5x,7,5,7,4,7,4,7,3,7,3,7,2,7,2,7,
1,7,1,7,8,7,8,7,{24}8x,1,2,3,4,5,6,7,8,1,2,3,
{4}6h[8:1]/4b>5[2:3],6h[8:1],7h[8:1],7h[8:1],
8h[8:1],8h[8:1],{8}1,B7/B8,{4}B7/B8,
{8}4h[8:1],6,4h[8:1],6,3h[8:1],7,3h[8:1],7,
2h[8:1],E1,2h[8:1]/E8,E7,{4}E6/1-5[8:1],1,
{8}6h[8:1],4,6h[8:1],4,7h[8:1],3,7h[8:1],3,
8h[8:1],2,8h[8:1],2,1,B1/B2,{4}B1/B2,
{8}3h[8:1],5,6h[8:1],4,2h[8:1],5,3/4,5h[2:1],
,,3,3,{16}4,5,{8}4,{4}6b/3b,
{8}4,6,3,5h[4:1],{16}1,8,7,6,{8}5>1[8:1],8,
{16}8,7,6,5,{8}4<8[8:1],1,{16}1,2,3,4,{8}5,8/7,
7,5,6,4h[4:1],{16}8,1,2,3,{8}4<8[8:1],1,
{16}1,2,3,4,{8}5,8/7,{16}4,5,{8}4,{4}3b/6b,
{8}2,5,3,4h[4:1],{16}1,8,7,6,{8}5-3-1[8:1],8,
{16}8,7,6,5,{8}4-6-8[8:1],1,{16}1,2,3,4,{8}5,7/8,
7/8,5/6,6/5,4/3,4/3,1/2,2/1,3/8,
{16}8b/3b,,,5b/6b,,,{8}3b/4b,{4}8/1,5-2b[4:11]*-8[4:11],
{1}5b,
{4},,,,,,,,1b/Cf,
6b/Cf,3b/Cf,{16}2b,1,2,1,
{4}2-4-6[0.3##0.3],B8/B7,3-5-7[4:1],B1/B2,
4-6-8[4:1],B3/B4,5h[4:1],4,
{1}6bpp4[2:1]/3bqq5b[2:1],
{16}3,4,3,4,2,5,2,5,1,6,1,6,8,7,8,7,
{4}8-4b[8:1],{16}8b/1b,Cf,,,2,1,,3,{8}4,6/5,
{16}7,8,1,2,3,4,5,6,8/7-4[8:1],,,1-5[8:1],,,{8}1,
{4}6,4h[8:5],{8}2,2,1,1,
{16}4/8,5,6,7,8/4,1,2,3,4/8,5,6,7,4/8,1/5,2/6,3/7,
{4}8b/4b>8[8:1],{16}8,7,6,5,4,3,2,1,8,7,6,5,
8,7,6,5,4,3,2,1,{4}8-4[8:1],8/7,
{16}6,5,7,5,{32}8b,B8f,C,B4,{8}A4,{16}3,4,2,4,{32}1b,B1f,C,B5,{8}A5,
{24}7x,6,5,4,3,2,7x,6,5,4,3,2,7x,6,5,4,3,2,{16}7-3[8:1],8,7,8,
{4}7,{16}2,1,2,1,3,8,3,8,4,7,4,7,
{8}5s1-3-7-5[4:5],,,E1,E8,E7,{4}E6,
,,,4/5,
{16}2,4,{8}3,{16}7,5,{8}6,{16}2,1,2,1,{24}2,3,4,5,6,7,
{4}Cf/8-4[8:1],{8}8/1,2,{16}3h[16:3],,,4h[16:3],,,{8}5-1[8:1],
,5/6-2[8:1],,6,{16}1,8,7,6,5,4,3,2,
{4}1-5[8:1],{8}1/8,7,{16}6h[16:3],,,5h[16:3],,,{8}4-8[8:1],
,4/3-7[8:1],,3,{16}8,1,2,3,4,5,6,7,
2-6[8:1],1,2,1,{8}2b,7,{16}7h[16:3],,,8h[16:3],,,{8}1-5[8:1],
,1/2-6[8:1],,2,{16}7,8,1,2,3,4,5,6,
{8}7/2-5[8:1],2,2/7-3[8:1],7,7/1-5[8:1],1,1/6,6,
{16}6,5,6,5,7,4,7,4,8,3,8,3,1,2,1,2,
{4}1-5[8:1],1/3-7[8:1],3/6-1[8:1],6/2-5[8:1],
2/8-4[8:1],8/3-8[8:1],{16}3/7,6,5,4,3,2,1,8,
{4}7/3-8[8:1],3/7-4[8:1],7/1-5[8:1],1/6-2[8:1],
6/4-1[8:1],4/7-4[8:1],{16}7/2,1,8,7,6,5,4,3,
8-4[8:1],1,8,1,{8}8b,5,{16}5h[16:3],,,6h[16:3],,,{8}7-3[8:1],
,7/8-4[8:1],,8,{16}6,7,8,1,2,3,4,5,
{8}3/6,3,4,4,5,5,6,6,
{16}7,8,7,8,6,1,6,1,5,2,5,2,4,3,4,3,
{4}4>5[2:3],,,3q5[4:3],
,,,,3h[2:3],
,,8<5[2:1],
,,,E8/B8,
{8}E3,B6,{4}E4,{8}C,,,B7,
E4,B5,{4}E2,C,{8}7,7h[8:7],
,,,,,,1-5[8:1],1,
E
