&title=有明/Ariake
&artist=SIINCA
&first=0.0
&des=心白-HW
&lv_5=14
&des_5=心白-HW
&inote_5=(190){4},,,,(95){1}5b/1bpp6>7[2:3],
{4},,,4-8[8:1],
7<1[2:1],,,8-4[8:1],
{2}4>5[32:21],4>1[8:1],
{16}8V24[8:1],7,6,5,,,,,1V35[8:1],8,7,6,,,,,2V46[8:1],
1,8,7,,,,,3V57[8:1],2,1,8,,,,,1V75[8:1],
2,3,4,{4}5,{16}2V86[8:1],3,4,5,{4}6,
{16}3V17[8:1],4,5,6,{4}7,{16}4V28[8:1],5,6,7,{4}8<1>8[1:2]*p1b[1:1],
{1}8b,
{8},,,,,,,,1h[8:1],
{16}7,7/1h[8:1],,6,{8}6/1h[8:1],{16}5,5/1h[8:1],,4,2/4,5,6/4,7,
{8}8h[8:1],{16}6,6/8h[8:1],,5,{8}5/8h[8:1],{16}4,4/8h[8:1],,3,{8}3/8h[8:1],2,
(190)1>3[8:1],8,7,6<8[8:1],5,4,3<5[8:1],2,
1,8>2[8:1],7,6,5,4,3,2,
1<7[8:1],2,3,4>2[8:1],5,6,7<5[8:1],8,
1,2<8[8:1],3,4,5,6,7,8,
1>4[8:1],8,7,6<1[8:1],5,4,3<6[8:1],2,
1,8>3[8:1],7,6,5,4,3,2,
1<6[8:1],2,3,4>1[8:1],5,6,7<4[8:1],8,
1,2<7[8:1],3,4,5,6,7,8,
{4}1-5[8:1],{16}8/1pp1[8:3],,,8h[16:1],,,{8}8,{16},8,,,{4}8-4[8:1],
{16}1/8qq8[8:3],,,1h[8:1],,,{8}1,{16},1,,,{4}1-5[8:1],
{16}8/1pp1[8:3],,,7h[8:1],,,{8}7,{16},7,,,{4}8-4[8:1],
{16}1/8qq8[8:3],,,2h[8:1],,,{8}2,{16},2,,,{8}1,
{16}3,4,{8}3,{16}6,5,{8}6,{16}2,1,{8}2,{16}7,8,
{8}7,{16}2,4,{8}3,{16}7,5,{8}6,{16}3,4,{8}2,{16}6,5,
{8}7,7,7,7,{16}7,6,7,6,7,6,7,6,
7qq4[8:9],,,,,,,,,,,2x,{8}2x,1x,
{4}1bx-5[8:1],1bx,{16}6x,7,8,6x,7,8,6x,7,
8,6x,7,8,6x,7,8x,1,2x,3,4,2x,3,4,2x,3,
4,2x,3,4,2x,3,4x,5,6x,7,8,6x,7,8,6x,7,
8,6x,7,8,6x,7x,8x,6bxv1[16:3]/1bx-6[16:3],,,,,,,,,{2}7bx-3pp6-2qq7b[2:7],
{8}E1,,,E8,
,,{4}E7,{8},E6,,,{2}E5,
{8}E4,,,E3,
,,{4}E2,{8},E1,,,{4}8/1-6-2[4:1],
7-4-8[4:1],{8},,2-5-1[4:1],2,
8,8,7-4-8-5[8:3],7,3,3,{4}3,
2-7-2[16:3],6-3-6[16:3],{8},,1-5-1[16:3],1,
7,7,{32}E3,E4,E5,E6,E7,E8,E1,E2,{2}E3/Ch[4:1],
{4}2v5p1[4:1],7v4q8[4:1],{8},,3-5-2[4:1],3,
7,7,6-4-7[4:1],6,2-5[8:1],2,,,{4}8/1,
{8}2h[8:1],3h[8:1],4h[8:1],5h[8:1],6h[8:1],7h[8:1],
{2}8z4[16:11],1-5[8:1],
6<3[16:3],6<3[16:3],
6<3[16:3],6<3[16:3],
5<4[16:3],5<4[16:3],
5<4[16:3],5<4[16:3],
5h[2:1],8<1[16:3],
8<1[16:3],8<1[16:3],
{1}8pp2<1v3[8:5]*qq6<7v5[8:5],
{16},,3,4/2,,6,{8}5/7,{16},1/8,{8}8/1,7/2,7/2,
{16}3x,4,5,6,,8,,8,{8}1,{16}1x,2,3,4,{8}5/6,
5/6,{16}5x/6x,4,3,2,1x/8x,7,6,5,8x,7,6,5,4,3,
6x,5,4,3,,1,,1,{8}8,{16}8x,7,6,5,{8}4/3,
4/3,{16}3x/4x,5,6,7,8x/1x,2,3,4,1x,2,3,4,5,6,
3x,4,5,6,,8,,8,{8}4,{16}4x,3,2,1,{8}8/7,
8/7,{16}7x/8x,1,2,3,4x/5x,6,7,8,5x,6,7,8,1,2,
7x,8,1,2,,4,,4,{8}5,{16}5x,6,7,8,{8}1/2,
1/2,{16}2x/1x,8,7,6,8x/5x,7,6,5,7x/4x,6,5,4,3,2,
{8}1bx-6[8:1]/5bx-2[8:1],,,,,1h[8:1],2h[8:1],3h[8:1],
{4}4V28[4:1],8V64[4:1],4V28[4:1],8V64-7[2:1],
{8}4-1[4:1],,,,,8h[8:1],7h[8:1],6h[8:1],
{4}5V71[4:1],1V35[4:1],5-1[8:1],8,
{8}7<4[8:1],8b,{4}7b/1b,{8}8<5[8:1],1b,{4}8b/2b,
{8}1<6[8:1],2b,{4}1b/3b,{8}2<7[8:1],3b,{4}2b/4b,
{8}3>7[8:1],4b,{4}3b/5b,{8}4>8[8:1],5b,{4}4b/6b,
{8}5xh[3:1],{24}8x,1,2,3,4,,6,7,8,{4}1w5[8:1],1,
{1}A7/B7/B3/A3/Cfh[1:2],
,1pp8pp7pp6pp5pp4pp3pp2pp1b[4:31],
{2},,,,,,,,,,,,,,8<3[4:5],
C,
4>7[4:5],C,
8<3[4:5],C,
{8}2,2,,1,{2}1h[4:1],
1>6[4:5],C,
5<2[4:5],C,
1>5[1:1],C,
6h[2:1],7h[2:1],
{8}8h[8:3],E7,E6,E5,8h[8:3],E6,E5,E4,
8h[8:3],E5,E4,E3,1h[8:1],3h[8:1],5h[8:1],7h[8:1],
1h[8:3],E3,E4,E5,1h[8:3],E4,E5,E6,
1h[8:3],E5,E6,E7,8h[8:1],6h[8:1],4h[8:1],2h[8:1],
8h[8:3],6,5,4,8h[8:3],5,4,3,
8h[8:3],4,3,2,1h[8:1],3h[8:1],5h[8:1],7h[8:1],
1h[8:3],3,4,5,1h[8:3],4,5,6,
1h[8:3],5,6,7,8h[8:1],6h[8:1],4h[8:1],2h[8:1],
8-2[8:1],7,6,5-7[8:1],4,3,2-4[8:1],1,
8,7-1[8:1],6,5,4,3,2,1,
8-5[8:1],1,2,3-8[8:1],4,5,6-3[8:1],7,
8,1-6[8:1],2,3,4,5,6,7,
{16}2x/8bx,3,4,5,6x/1bx,5,4,3,2x/8bx,3,4,5,6x/1bx,5,4,3,
2bx/7x,6,5,4,3x/8bx,4,5,6,7x/1bx,6,5,4,3x/8bx,4,5,6,
1b,8,1b,7,1b,6,1b,5,1b,5,1b,6,1b,7,1b,8,
{4}1bh[4:3],{8}2,2,,8,{4}8bxw4[8:1],
{1}8,
,,,1h[1:4],
,8h[1:2],
,{32},E8/E2,
B7/B2,B3/B6,{8}E6/E4,
E
